<?xml version="1.0" standalone="no"?>
<!DOCTYPE svg PUBLIC "-//W3C//DTD SVG 1.1//EN" "http://www.w3.org/Graphics/SVG/1.1/DTD/svg11.dtd" >
<!--
2013-9-30: Created.
-->
<svg>
<metadata>
Created by iconfont
</metadata>
<defs>

<font id="pear-icon" horiz-adv-x="1024" >
  <font-face
    font-family="pear-icon"
    font-weight="500"
    font-stretch="normal"
    units-per-em="1024"
    ascent="896"
    descent="-128"
  />
    <missing-glyph />
    
    <glyph glyph-name="jiazai" unicode="&#59072;" d="M512-96c-64.78 0-127.65 12.7-186.85 37.74-57.16 24.18-108.49 58.78-152.56 102.85-44.07 44.07-78.68 95.4-102.85 152.56C44.7 256.35 32 319.22 32 384s12.7 127.65 37.74 186.85c24.18 57.16 58.78 108.49 102.85 152.56s95.4 78.68 152.56 102.85C384.35 851.3 447.22 864 512 864c19.89 0 36.01-16.12 36.01-36.01s-16.12-36.01-36.01-36.01c-55.09 0-108.52-10.78-158.79-32.05-48.58-20.55-92.21-49.97-129.69-87.45s-66.9-81.11-87.45-129.69c-21.26-50.27-32.05-103.7-32.05-158.79s10.78-108.52 32.05-158.79c20.55-48.58 49.97-92.21 87.45-129.69s81.11-66.9 129.69-87.45c50.27-21.26 103.7-32.05 158.79-32.05s108.52 10.78 158.79 32.05c48.58 20.55 92.21 49.97 129.69 87.45s66.9 81.11 87.45 129.69c21.26 50.27 32.05 103.7 32.05 158.79 0 44.18-7.01 87.61-20.83 129.09-6.29 18.87 3.91 39.26 22.78 45.55 18.87 6.29 39.26-3.91 45.55-22.78C983.75 487.02 992 435.93 992 384c0-64.78-12.7-127.65-37.74-186.85-24.18-57.16-58.78-108.49-102.85-152.56-44.07-44.07-95.4-78.68-152.56-102.85C639.65-83.3 576.78-96 512-96z"  horiz-adv-x="1024" />

    
    <glyph glyph-name="3column" unicode="&#59004;" d="M874.666667 778.666667H149.333333C108.8 778.666667 74.666667 744.533333 74.666667 704v-640c0-40.533333 34.133333-74.666667 74.666666-74.666667h725.333334c40.533333 0 74.666667 34.133333 74.666666 74.666667V704c0 40.533333-34.133333 74.666667-74.666666 74.666667z m-245.333334-64v-661.333334h-234.666666v661.333334h234.666666zM138.666667 64V704c0 6.4 4.266667 10.666667 10.666666 10.666667h181.333334v-661.333334H149.333333c-6.4 0-10.666667 4.266667-10.666666 10.666667z m746.666666 0c0-6.4-4.266667-10.666667-10.666666-10.666667h-181.333334v661.333334H874.666667c6.4 0 10.666667-4.266667 10.666666-10.666667v-640z"  horiz-adv-x="1024" />

    
    <glyph glyph-name="column-4" unicode="&#59005;" d="M874.666667 778.666667H149.333333C108.8 778.666667 74.666667 744.533333 74.666667 704v-640c0-40.533333 34.133333-74.666667 74.666666-74.666667h725.333334c40.533333 0 74.666667 34.133333 74.666666 74.666667V704c0 40.533333-34.133333 74.666667-74.666666 74.666667z m-330.666667-64h128v-661.333334h-128v661.333334z m-64-661.333334h-128v661.333334h128v-661.333334z m-341.333333 10.666667V704c0 6.4 4.266667 10.666667 10.666666 10.666667h138.666667v-661.333334H149.333333c-6.4 0-10.666667 4.266667-10.666666 10.666667z m746.666666 0c0-6.4-4.266667-10.666667-10.666666-10.666667h-138.666667v661.333334H874.666667c6.4 0 10.666667-4.266667 10.666666-10.666667v-640z"  horiz-adv-x="1024" />

    
    <glyph glyph-name="add" unicode="&#59006;" d="M853.333333 416H544V725.333333c0 17.066667-14.933333 32-32 32s-32-14.933333-32-32v-309.333333H170.666667c-17.066667 0-32-14.933333-32-32s14.933333-32 32-32h309.333333V42.666667c0-17.066667 14.933333-32 32-32s32 14.933333 32 32V352H853.333333c17.066667 0 32 14.933333 32 32s-14.933333 32-32 32z"  horiz-adv-x="1024" />

    
    <glyph glyph-name="adjust" unicode="&#59007;" d="M522.666667 437.333333c-17.066667 0-32-14.933333-32-32v-362.666666c0-17.066667 14.933333-32 32-32S554.666667 25.6 554.666667 42.666667V405.333333c0 17.066667-14.933333 32-32 32zM341.333333 341.333333H106.666667c-17.066667 0-32-14.933333-32-32S89.6 277.333333 106.666667 277.333333h74.666666v-234.666666c0-17.066667 14.933333-32 32-32s32 14.933333 32 32V277.333333H341.333333c17.066667 0 32 14.933333 32 32S358.4 341.333333 341.333333 341.333333zM693.333333 522.666667c0 17.066667-14.933333 32-32 32h-106.666666V725.333333c0 17.066667-14.933333 32-32 32S490.666667 742.4 490.666667 725.333333v-170.666666h-106.666667c-17.066667 0-32-14.933333-32-32S366.933333 490.666667 384 490.666667h277.333333c17.066667 0 32 14.933333 32 32zM917.333333 277.333333H682.666667c-17.066667 0-32-14.933333-32-32S665.6 213.333333 682.666667 213.333333h96v-170.666666c0-17.066667 14.933333-32 32-32s32 14.933333 32 32v170.666666H917.333333c17.066667 0 32 14.933333 32 32S934.4 277.333333 917.333333 277.333333zM213.333333 437.333333c17.066667 0 32 14.933333 32 32V725.333333c0 17.066667-14.933333 32-32 32S181.333333 742.4 181.333333 725.333333v-256c0-17.066667 14.933333-32 32-32zM810.666667 373.333333c17.066667 0 32 14.933333 32 32V725.333333c0 17.066667-14.933333 32-32 32s-32-14.933333-32-32v-320c0-17.066667 14.933333-32 32-32z"  horiz-adv-x="1024" />

    
    <glyph glyph-name="ashbin" unicode="&#59008;" d="M874.666667 654.933333h-202.666667V725.333333c0 40.533333-34.133333 74.666667-74.666667 74.666667h-170.666666c-40.533333 0-74.666667-34.133333-74.666667-74.666667v-70.4H149.333333c-17.066667 0-32-14.933333-32-32s14.933333-32 32-32h53.333334V42.666667c0-40.533333 34.133333-74.666667 74.666666-74.666667h469.333334c40.533333 0 74.666667 34.133333 74.666666 74.666667V590.933333H874.666667c17.066667 0 32 14.933333 32 32s-14.933333 32-32 32zM416 725.333333c0 6.4 4.266667 10.666667 10.666667 10.666667h170.666666c6.4 0 10.666667-4.266667 10.666667-10.666667v-70.4h-192V725.333333z m341.333333-682.666666c0-6.4-4.266667-10.666667-10.666666-10.666667H277.333333c-6.4 0-10.666667 4.266667-10.666666 10.666667V586.666667h490.666666V42.666667zM426.666667 160c17.066667 0 32 14.933333 32 32V405.333333c0 17.066667-14.933333 32-32 32s-32-14.933333-32-32v-213.333333c0-17.066667 14.933333-32 32-32zM597.333333 160c17.066667 0 32 14.933333 32 32V405.333333c0 17.066667-14.933333 32-32 32s-32-14.933333-32-32v-213.333333c0-17.066667 14.933333-32 32-32z"  horiz-adv-x="1024" />

    
    <glyph glyph-name="browse" unicode="&#59009;" d="M512 59.733333C230.4 59.733333 74.666667 362.666667 68.266667 375.466667c-4.266667 8.533333-4.266667 19.2 0 29.866666 6.4 12.8 164.266667 315.733333 443.733333 315.733334 281.6 0 437.333333-305.066667 443.733333-317.866667 4.266667-8.533333 4.266667-19.2 0-29.866667-6.4-10.666667-162.133333-313.6-443.733333-313.6zM132.266667 390.4c34.133333-57.6 170.666667-266.666667 379.733333-266.666667s345.6 209.066667 379.733333 266.666667c-34.133333 57.6-170.666667 266.666667-379.733333 266.666667S166.4 448 132.266667 390.4zM512 245.333333c-76.8 0-138.666667 61.866667-138.666667 138.666667s61.866667 138.666667 138.666667 138.666667 138.666667-61.866667 138.666667-138.666667-61.866667-138.666667-138.666667-138.666667z m0 213.333334c-40.533333 0-74.666667-34.133333-74.666667-74.666667s34.133333-74.666667 74.666667-74.666667 74.666667 34.133333 74.666667 74.666667-34.133333 74.666667-74.666667 74.666667z"  horiz-adv-x="1024" />

    
    <glyph glyph-name="bottom" unicode="&#59010;" d="M896 32H128c-17.066667 0-32-14.933333-32-32s14.933333-32 32-32h768c17.066667 0 32 14.933333 32 32s-14.933333 32-32 32zM488.533333 168.533333c6.4-6.4 14.933333-8.533333 23.466667-8.533333s17.066667 2.133333 23.466667 8.533333l213.333333 213.333334c12.8 12.8 12.8 32 0 44.8-12.8 12.8-32 12.8-44.8 0l-157.866667-157.866667V725.333333c0 17.066667-14.933333 32-32 32s-34.133333-14.933333-34.133333-32v-456.533333L322.133333 426.666667c-12.8 12.8-32 12.8-44.8 0-12.8-12.8-12.8-32 0-44.8l211.2-213.333334z"  horiz-adv-x="1024" />

    
    <glyph glyph-name="back" unicode="&#59011;" d="M853.333333 650.666667H245.333333l93.866667 93.866666c12.8 12.8 12.8 34.133333 0 46.933334-12.8 12.8-34.133333 12.8-46.933333 0l-145.066667-145.066667c-12.8-12.8-12.8-34.133333 0-46.933333l145.066667-145.066667c6.4-6.4 14.933333-10.666667 23.466666-10.666667s17.066667 4.266667 23.466667 10.666667c12.8 12.8 12.8 34.133333 0 46.933333L256 584.533333h597.333333c6.4 0 10.666667-4.266667 10.666667-10.666666v-426.666667c0-6.4-4.266667-10.666667-10.666667-10.666667H170.666667c-17.066667 0-32-14.933333-32-32s14.933333-32 32-32h682.666666c40.533333 0 74.666667 34.133333 74.666667 74.666667V576c0 40.533333-34.133333 74.666667-74.666667 74.666667z"  horiz-adv-x="1024" />

    
    <glyph glyph-name="bad" unicode="&#59012;" d="M904.533333 373.333333L853.333333 710.4c-8.533333 51.2-55.466667 89.6-106.666666 89.6H204.8c-59.733333 0-108.8-46.933333-108.8-106.666667v-258.133333c0-57.6 49.066667-106.666667 108.8-106.666667h91.733333l125.866667-281.6c2.133333-2.133333 2.133333-4.266667 4.266667-6.4 14.933333-23.466667 38.4-36.266667 64-36.266666 12.8 0 25.6 4.266667 38.4 10.666666 57.6 34.133333 87.466667 72.533333 87.466666 117.333334v117.333333h183.466667c32 0 59.733333 12.8 81.066667 36.266667 19.2 25.6 29.866667 55.466667 23.466666 87.466666z m-616.533333 21.333334H204.8c-25.6 0-44.8 19.2-44.8 42.666666v256c0 23.466667 19.2 42.666667 44.8 42.666667h83.2v-341.333333zM832 328.533333c-8.533333-8.533333-21.333333-14.933333-34.133333-14.933333h-213.333334c-17.066667 0-32-14.933333-32-32v-149.333333c0-25.6-29.866667-49.066667-55.466666-64-4.266667-2.133333-10.666667-2.133333-14.933334 4.266666L352 362.666667V736H746.666667c21.333333 0 40.533333-14.933333 42.666666-36.266667L842.666667 362.666667c2.133333-10.666667-2.133333-23.466667-10.666667-34.133334z"  horiz-adv-x="1024" />

    
    <glyph glyph-name="arrow-double-left" unicode="&#59013;" d="M842.666667 32c-8.533333 0-14.933333 2.133333-21.333334 8.533333l-341.333333 309.333334c-6.4 6.4-10.666667 14.933333-10.666667 23.466666 0 8.533333 4.266667 17.066667 10.666667 23.466667l341.333333 309.333333c12.8 12.8 34.133333 10.666667 44.8-2.133333 12.8-12.8 10.666667-34.133333-2.133333-44.8L548.266667 373.333333l315.733333-285.866666c12.8-10.666667 14.933333-32 2.133333-44.8-6.4-6.4-14.933333-10.666667-23.466666-10.666667zM512 32c-8.533333 0-14.933333 2.133333-21.333333 8.533333L149.333333 349.866667c-6.4 6.4-10.666667 14.933333-10.666666 23.466666 0 8.533333 4.266667 17.066667 10.666666 23.466667L490.666667 706.133333c12.8 12.8 34.133333 10.666667 44.8-2.133333 12.8-12.8 10.666667-34.133333-2.133334-44.8L217.6 373.333333 533.333333 87.466667c12.8-12.8 14.933333-32 2.133334-44.8-6.4-6.4-14.933333-10.666667-23.466667-10.666667z"  horiz-adv-x="1024" />

    
    <glyph glyph-name="arrow-double-right" unicode="&#59014;" d="M544 373.333333c0 8.533333-4.266667 17.066667-10.666667 23.466667L192 706.133333c-12.8 12.8-34.133333 10.666667-44.8-2.133333-12.8-12.8-10.666667-34.133333 2.133333-44.8l315.733334-285.866667L149.333333 87.466667c-12.8-12.8-14.933333-32-2.133333-44.8 6.4-6.4 14.933333-10.666667 23.466667-10.666667 8.533333 0 14.933333 2.133333 21.333333 8.533333l341.333333 309.333334c6.4 6.4 10.666667 14.933333 10.666667 23.466666zM864 396.8l-341.333333 309.333333c-12.8 12.8-34.133333 10.666667-44.8-2.133333-12.8-12.8-10.666667-34.133333 2.133333-44.8l315.733333-285.866667-315.733333-285.866666c-12.8-12.8-14.933333-32-2.133333-44.8 6.4-6.4 14.933333-10.666667 23.466666-10.666667 8.533333 0 14.933333 2.133333 21.333334 8.533333l341.333333 309.333334c6.4 6.4 10.666667 14.933333 10.666667 23.466666 0 8.533333-4.266667 17.066667-10.666667 23.466667z"  horiz-adv-x="1024" />

    
    <glyph glyph-name="camera" unicode="&#59015;" d="M846.933333 657.066667h-140.8L646.4 746.666667c-6.4 10.666667-17.066667 17.066667-29.866667 17.066666h-209.066666c-12.8 0-23.466667-6.4-29.866667-17.066666l-59.733333-89.6H177.066667c-57.6 0-106.666667-46.933333-106.666667-106.666667v-426.666667c0-57.6 46.933333-106.666667 106.666667-106.666666h672c57.6 0 106.666667 46.933333 106.666666 106.666666v426.666667c-2.133333 59.733333-49.066667 106.666667-108.8 106.666667z m34.133334-533.333334c0-19.2-14.933333-34.133333-34.133334-34.133333H177.066667c-19.2 0-34.133333 14.933333-34.133334 34.133333v426.666667c0 19.2 14.933333 34.133333 34.133334 34.133333h160c12.8 0 23.466667 6.4 29.866666 17.066667L426.666667 689.066667h170.666666l59.733334-89.6c6.4-10.666667 17.066667-17.066667 29.866666-17.066667h160c19.2 0 34.133333-14.933333 34.133334-34.133333v-424.533334zM512 531.2c-96 0-174.933333-78.933333-174.933333-174.933333 0-96 78.933333-174.933333 174.933333-174.933334 96 0 174.933333 78.933333 174.933333 174.933334 0 96-78.933333 174.933333-174.933333 174.933333z m0-279.466667c-57.6 0-104.533333 46.933333-104.533333 104.533334s46.933333 104.533333 104.533333 104.533333 104.533333-46.933333 104.533333-104.533333-46.933333-104.533333-104.533333-104.533334z"  horiz-adv-x="1024" />

    
    <glyph glyph-name="chart-bar" unicode="&#59016;" d="M149.333333 96h128c29.866667 0 53.333333 23.466667 53.333334 53.333333V362.666667c0 29.866667-23.466667 53.333333-53.333334 53.333333H149.333333c-29.866667 0-53.333333-23.466667-53.333333-53.333333v-213.333334c0-29.866667 23.466667-53.333333 53.333333-53.333333z m10.666667 256h106.666667v-192h-106.666667v192zM448 96h128c29.866667 0 53.333333 23.466667 53.333333 53.333333V746.666667c0 29.866667-23.466667 53.333333-53.333333 53.333333h-128c-29.866667 0-53.333333-23.466667-53.333333-53.333333v-597.333334c0-29.866667 23.466667-53.333333 53.333333-53.333333z m10.666667 640h106.666666v-576h-106.666666v576zM874.666667 586.666667h-128c-29.866667 0-53.333333-23.466667-53.333334-53.333334v-384c0-29.866667 23.466667-53.333333 53.333334-53.333333h128c29.866667 0 53.333333 23.466667 53.333333 53.333333V533.333333c0 29.866667-23.466667 53.333333-53.333333 53.333334z m-10.666667-426.666667h-106.666667v362.666667h106.666667v-362.666667zM896 42.666667H128c-17.066667 0-32-14.933333-32-32S110.933333-21.333333 128-21.333333h768c17.066667 0 32 14.933333 32 32S913.066667 42.666667 896 42.666667z"  horiz-adv-x="1024" />

    
    <glyph glyph-name="attachment" unicode="&#59017;" d="M874.666667 428.8c-10.666667 10.666667-29.866667 12.8-42.666667 0l-343.466667-341.333333c-74.666667-74.666667-198.4-74.666667-275.2 0-36.266667 36.266667-57.6 85.333333-57.6 136.533333s19.2 100.266667 57.6 136.533333L556.8 704c46.933333 46.933333 121.6 46.933333 168.533333 0 23.466667-23.466667 34.133333-53.333333 34.133334-83.2 0-32-12.8-61.866667-34.133334-83.2L384 192c-17.066667-17.066667-44.8-17.066667-64 0-8.533333 8.533333-12.8 19.2-12.8 32s4.266667 23.466667 12.8 32l317.866667 315.733333c10.666667 10.666667 12.8 29.866667 0 42.666667-10.666667 12.8-29.866667 12.8-42.666667 0L277.333333 298.666667c-19.2-19.2-29.866667-46.933333-29.866666-74.666667S258.133333 170.666667 277.333333 149.333333c40.533333-40.533333 106.666667-40.533333 147.2 0L768 492.8c34.133333 34.133333 53.333333 78.933333 53.333333 125.866667s-19.2 93.866667-53.333333 125.866666a178.986667 178.986667 0 0 1-253.866667 0l-341.333333-341.333333c-46.933333-46.933333-74.666667-110.933333-74.666667-179.2s25.6-132.266667 74.666667-179.2c49.066667-49.066667 115.2-74.666667 179.2-74.666667s130.133333 25.6 179.2 74.666667l343.466667 341.333333c10.666667 12.8 10.666667 32 0 42.666667z"  horiz-adv-x="1024" />

    
    <glyph glyph-name="code" unicode="&#59018;" d="M322.133333 599.466667c-12.8 12.8-32 12.8-44.8 0l-192-192c-12.8-12.8-12.8-32 0-44.8l192-192c6.4-6.4 14.933333-8.533333 23.466667-8.533334s17.066667 2.133333 23.466667 8.533334c12.8 12.8 12.8 32 0 44.8L151.466667 384l168.533333 168.533333c12.8 12.8 12.8 34.133333 2.133333 46.933334zM940.8 407.466667l-192 192c-12.8 12.8-32 12.8-44.8 0-12.8-12.8-12.8-32 0-44.8l168.533333-168.533334-168.533333-168.533333c-12.8-12.8-12.8-32 0-44.8 6.4-6.4 14.933333-8.533333 23.466667-8.533333s17.066667 2.133333 23.466666 8.533333l192 192c8.533333 8.533333 8.533333 29.866667-2.133333 42.666667zM622.933333 819.2c-17.066667 4.266667-34.133333-6.4-38.4-23.466667L366.933333-6.4c-4.266667-17.066667 6.4-34.133333 23.466667-38.4 2.133333 0 6.4-2.133333 8.533333-2.133333 14.933333 0 27.733333 8.533333 29.866667 23.466666L644.266667 780.8c4.266667 17.066667-4.266667 34.133333-21.333334 38.4z"  horiz-adv-x="1024" />

    
    <glyph glyph-name="close" unicode="&#59019;" d="M556.8 384L832 659.2c12.8 12.8 12.8 32 0 44.8-12.8 12.8-32 12.8-44.8 0L512 428.8l-275.2 277.333333c-12.8 12.8-32 12.8-44.8 0-12.8-12.8-12.8-32 0-44.8l275.2-277.333333-277.333333-275.2c-12.8-12.8-12.8-32 0-44.8 6.4-6.4 14.933333-8.533333 23.466666-8.533333s17.066667 2.133333 23.466667 8.533333L512 339.2 787.2 64c6.4-6.4 14.933333-8.533333 23.466667-8.533333s17.066667 2.133333 23.466666 8.533333c12.8 12.8 12.8 32 0 44.8L556.8 384z"  horiz-adv-x="1024" />

    
    <glyph glyph-name="check-item" unicode="&#59020;" d="M853.333333 800H170.666667C130.133333 800 96 765.866667 96 725.333333v-682.666666c0-40.533333 34.133333-74.666667 74.666667-74.666667h682.666666c40.533333 0 74.666667 34.133333 74.666667 74.666667V725.333333c0 40.533333-34.133333 74.666667-74.666667 74.666667z m10.666667-757.333333c0-6.4-4.266667-10.666667-10.666667-10.666667H170.666667c-6.4 0-10.666667 4.266667-10.666667 10.666667V725.333333c0 6.4 4.266667 10.666667 10.666667 10.666667h682.666666c6.4 0 10.666667-4.266667 10.666667-10.666667v-682.666666zM704 514.133333l-243.2-234.666666-117.333333 125.866666c-12.8 12.8-32 12.8-44.8 2.133334-12.8-12.8-12.8-32-2.133334-44.8l140.8-149.333334c6.4-6.4 14.933333-10.666667 23.466667-10.666666 8.533333 0 17.066667 4.266667 21.333333 8.533333l264.533334 256c12.8 12.8 12.8 32 0 44.8-10.666667 12.8-29.866667 14.933333-42.666667 2.133333z"  horiz-adv-x="1024" />

    
    <glyph glyph-name="calendar" unicode="&#59021;" d="M853.333333 746.666667h-138.666666V789.333333c0 17.066667-14.933333 32-32 32s-32-14.933333-32-32v-42.666666h-277.333334V789.333333c0 17.066667-14.933333 32-32 32s-32-14.933333-32-32v-42.666666H170.666667c-40.533333 0-74.666667-34.133333-74.666667-74.666667v-618.666667C96 12.8 130.133333-21.333333 170.666667-21.333333h682.666666c40.533333 0 74.666667 34.133333 74.666667 74.666666v618.666667C928 712.533333 893.866667 746.666667 853.333333 746.666667zM170.666667 682.666667h138.666666v-64c0-17.066667 14.933333-32 32-32s32 14.933333 32 32v64h277.333334v-64c0-17.066667 14.933333-32 32-32s32 14.933333 32 32v64H853.333333c6.4 0 10.666667-4.266667 10.666667-10.666667v-194.133333c-4.266667 2.133333-6.4 2.133333-10.666667 2.133333H170.666667c-4.266667 0-6.4 0-10.666667-2.133333v194.133333c0 6.4 4.266667 10.666667 10.666667 10.666667z m682.666666-640H170.666667c-6.4 0-10.666667 4.266667-10.666667 10.666666V418.133333c4.266667-2.133333 6.4-2.133333 10.666667-2.133333h682.666666c4.266667 0 6.4 0 10.666667 2.133333v-364.8c0-6.4-4.266667-10.666667-10.666667-10.666666zM384 288h-85.333333c-17.066667 0-32-14.933333-32-32s14.933333-32 32-32h85.333333c17.066667 0 32 14.933333 32 32s-14.933333 32-32 32zM725.333333 288h-192c-17.066667 0-32-14.933333-32-32s14.933333-32 32-32h192c17.066667 0 32 14.933333 32 32s-14.933333 32-32 32z"  horiz-adv-x="1024" />

    
    <glyph glyph-name="comment" unicode="&#59022;" d="M853.333333 757.333333H170.666667c-40.533333 0-74.666667-34.133333-74.666667-74.666666v-512c0-40.533333 34.133333-74.666667 74.666667-74.666667h151.466666V-21.333333c0-12.8 8.533333-25.6 19.2-29.866667 4.266667-2.133333 8.533333-2.133333 12.8-2.133333 8.533333 0 17.066667 4.266667 23.466667 10.666666l136.533333 138.666667H853.333333c40.533333 0 74.666667 34.133333 74.666667 74.666667V682.666667c0 40.533333-34.133333 74.666667-74.666667 74.666666z m10.666667-586.666666c0-6.4-4.266667-10.666667-10.666667-10.666667H501.333333c-8.533333 0-17.066667-4.266667-23.466666-10.666667l-89.6-93.866666V128c0 17.066667-14.933333 32-32 32H170.666667c-6.4 0-10.666667 4.266667-10.666667 10.666667V682.666667c0 6.4 4.266667 10.666667 10.666667 10.666666h682.666666c6.4 0 10.666667-4.266667 10.666667-10.666666v-512zM512 405.333333H298.666667c-17.066667 0-32-14.933333-32-32S281.6 341.333333 298.666667 341.333333h213.333333c17.066667 0 32 14.933333 32 32S529.066667 405.333333 512 405.333333zM672 554.666667H298.666667c-17.066667 0-32-14.933333-32-32S281.6 490.666667 298.666667 490.666667h373.333333c17.066667 0 32 14.933333 32 32s-14.933333 32-32 32z"  horiz-adv-x="1024" />

    
    <glyph glyph-name="column-vertical" unicode="&#59023;" d="M874.666667 778.666667H149.333333C108.8 778.666667 74.666667 744.533333 74.666667 704v-640c0-40.533333 34.133333-74.666667 74.666666-74.666667h725.333334c40.533333 0 74.666667 34.133333 74.666666 74.666667V704c0 40.533333-34.133333 74.666667-74.666666 74.666667z m-725.333334-64h725.333334c6.4 0 10.666667-4.266667 10.666666-10.666667v-288h-746.666666V704c0 6.4 4.266667 10.666667 10.666666 10.666667z m725.333334-661.333334H149.333333c-6.4 0-10.666667 4.266667-10.666666 10.666667V352h746.666666V64c0-6.4-4.266667-10.666667-10.666666-10.666667z"  horiz-adv-x="1024" />

    
    <glyph glyph-name="column-horizontal" unicode="&#59024;" d="M874.666667 778.666667H149.333333C108.8 778.666667 74.666667 744.533333 74.666667 704v-640c0-40.533333 34.133333-74.666667 74.666666-74.666667h725.333334c40.533333 0 74.666667 34.133333 74.666666 74.666667V704c0 40.533333-34.133333 74.666667-74.666666 74.666667zM138.666667 64V704c0 6.4 4.266667 10.666667 10.666666 10.666667h330.666667v-661.333334H149.333333c-6.4 0-10.666667 4.266667-10.666666 10.666667z m746.666666 0c0-6.4-4.266667-10.666667-10.666666-10.666667H544v661.333334H874.666667c6.4 0 10.666667-4.266667 10.666666-10.666667v-640z"  horiz-adv-x="1024" />

    
    <glyph glyph-name="complete" unicode="&#59025;" d="M874.666667 394.666667c-17.066667 0-32-14.933333-32-32v-298.666667c0-6.4-4.266667-10.666667-10.666667-10.666667H192c-6.4 0-10.666667 4.266667-10.666667 10.666667V704c0 6.4 4.266667 10.666667 10.666667 10.666667h469.333333c17.066667 0 32 14.933333 32 32s-14.933333 32-32 32H192C151.466667 778.666667 117.333333 744.533333 117.333333 704v-640c0-40.533333 34.133333-74.666667 74.666667-74.666667h640c40.533333 0 74.666667 34.133333 74.666667 74.666667V362.666667c0 17.066667-14.933333 32-32 32zM940.8 727.466667c-12.8 12.8-32 12.8-44.8 0l-390.4-384-106.666667 106.666666c-12.8 12.8-32 12.8-44.8 0-12.8-12.8-12.8-32 0-44.8l130.133334-128c6.4-6.4 14.933333-8.533333 23.466666-8.533333s17.066667 2.133333 23.466667 8.533333l411.733333 405.333334c8.533333 10.666667 10.666667 32-2.133333 44.8z"  horiz-adv-x="1024" />

    
    <glyph glyph-name="chart-pie" unicode="&#59026;" d="M887.466667 253.866667c-17.066667 6.4-34.133333 0-42.666667-17.066667-64-151.466667-221.866667-243.2-386.133333-221.866667-164.266667 21.333333-294.4 149.333333-315.733334 313.6C119.466667 490.666667 209.066667 650.666667 358.4 716.8c17.066667 6.4 23.466667 25.6 17.066667 42.666667-6.4 17.066667-25.6 23.466667-42.666667 17.066666C155.733333 697.6 51.2 509.866667 78.933333 317.866667c27.733333-192 179.2-343.466667 371.2-369.066667 19.2-2.133333 36.266667-4.266667 55.466667-4.266667 170.666667 0 330.666667 102.4 398.933333 264.533334 6.4 17.066667-2.133333 36.266667-17.066666 44.8zM814.933333 686.933333C727.466667 774.4 612.266667 821.333333 490.666667 821.333333c-17.066667 0-32-14.933333-32-32v-426.666666c0-17.066667 14.933333-32 32-32h426.666666c17.066667 0 32 14.933333 32 32 0 121.6-46.933333 236.8-134.4 324.266666zM522.666667 394.666667V755.2c93.866667-6.4 179.2-46.933333 247.466666-115.2 66.133333-66.133333 106.666667-153.6 115.2-247.466667h-362.666666z"  horiz-adv-x="1024" />

    
    <glyph glyph-name="cry" unicode="&#59027;" d="M512 821.333333C270.933333 821.333333 74.666667 625.066667 74.666667 384S270.933333-53.333333 512-53.333333 949.333333 142.933333 949.333333 384 753.066667 821.333333 512 821.333333z m0-810.666666c-204.8 0-373.333333 168.533333-373.333333 373.333333S307.2 757.333333 512 757.333333 885.333333 588.8 885.333333 384 716.8 10.666667 512 10.666667zM512 298.666667c-81.066667 0-151.466667-36.266667-211.2-106.666667-10.666667-12.8-8.533333-34.133333 4.266667-44.8 12.8-10.666667 34.133333-8.533333 44.8 4.266667 46.933333 57.6 100.266667 85.333333 162.133333 85.333333s115.2-27.733333 162.133333-85.333333c6.4-8.533333 14.933333-10.666667 25.6-10.666667 6.4 0 14.933333 2.133333 21.333334 6.4 12.8 10.666667 14.933333 32 4.266666 44.8-61.866667 70.4-132.266667 106.666667-213.333333 106.666667zM362.666667 384c23.466667 0 42.666667 19.2 42.666666 42.666667v64c0 23.466667-19.2 42.666667-42.666666 42.666666s-42.666667-19.2-42.666667-42.666666v-64c0-23.466667 19.2-42.666667 42.666667-42.666667zM661.333333 384c23.466667 0 42.666667 19.2 42.666667 42.666667v64c0 23.466667-19.2 42.666667-42.666667 42.666666s-42.666667-19.2-42.666666-42.666666v-64c0-23.466667 19.2-42.666667 42.666666-42.666667z"  horiz-adv-x="1024" />

    
    <glyph glyph-name="customer-service" unicode="&#59028;" d="M864 456.533333V469.333333c0 194.133333-157.866667 352-352 352S160 663.466667 160 469.333333v-12.8c-36.266667-4.266667-64-36.266667-64-72.533333v-170.666667c0-40.533333 34.133333-74.666667 74.666667-74.666666h85.333333c40.533333 0 74.666667 34.133333 74.666667 74.666666v170.666667c0 40.533333-34.133333 74.666667-74.666667 74.666667h-32V469.333333c0 157.866667 130.133333 288 288 288S800 627.2 800 469.333333v-10.666666H768c-40.533333 0-74.666667-34.133333-74.666667-74.666667v-170.666667c0-40.533333 34.133333-74.666667 74.666667-74.666666h21.333333c-17.066667-49.066667-59.733333-98.133333-179.2-106.666667-12.8 19.2-32 32-55.466666 32-36.266667 0-64-27.733333-64-64s27.733333-64 64-64c23.466667 0 44.8 12.8 55.466666 34.133333 166.4 10.666667 226.133333 91.733333 245.333334 170.666667 40.533333 2.133333 72.533333 34.133333 72.533333 74.666667v170.666666c0 36.266667-27.733333 66.133333-64 70.4z m-597.333333-72.533333v-170.666667c0-6.4-4.266667-10.666667-10.666667-10.666666H170.666667c-6.4 0-10.666667 4.266667-10.666667 10.666666v170.666667c0 6.4 4.266667 10.666667 10.666667 10.666667h85.333333c6.4 0 10.666667-4.266667 10.666667-10.666667z m597.333333-170.666667c0-6.4-4.266667-10.666667-10.666667-10.666666h-85.333333c-6.4 0-10.666667 4.266667-10.666667 10.666666v170.666667c0 6.4 4.266667 10.666667 10.666667 10.666667h85.333333c6.4 0 10.666667-4.266667 10.666667-10.666667v-170.666667z"  horiz-adv-x="1024" />

    
    <glyph glyph-name="direction-down" unicode="&#59029;" d="M898.133333 384c-12.8 12.8-32 12.8-44.8 2.133333L544 96V746.666667c0 17.066667-14.933333 32-32 32s-32-14.933333-32-32v-650.666667L170.666667 386.133333c-12.8 12.8-34.133333 10.666667-44.8-2.133333-12.8-12.8-10.666667-34.133333 2.133333-44.8l362.666667-341.333333c2.133333-2.133333 6.4-4.266667 8.533333-6.4 4.266667-2.133333 6.4-2.133333 10.666667-2.133334s8.533333 0 10.666666 2.133334c4.266667 2.133333 6.4 4.266667 8.533334 6.4l362.666666 341.333333c17.066667 12.8 19.2 32 6.4 44.8z"  horiz-adv-x="1024" />

    
    <glyph glyph-name="copy" unicode="&#59030;" d="M853.333333 672h-53.333333V725.333333c0 40.533333-34.133333 74.666667-74.666667 74.666667H170.666667C130.133333 800 96 765.866667 96 725.333333v-554.666666c0-40.533333 34.133333-74.666667 74.666667-74.666667h53.333333V42.666667c0-40.533333 34.133333-74.666667 74.666667-74.666667h554.666666c40.533333 0 74.666667 34.133333 74.666667 74.666667V597.333333c0 40.533333-34.133333 74.666667-74.666667 74.666667zM160 170.666667V725.333333c0 6.4 4.266667 10.666667 10.666667 10.666667h554.666666c6.4 0 10.666667-4.266667 10.666667-10.666667v-554.666666c0-6.4-4.266667-10.666667-10.666667-10.666667H170.666667c-6.4 0-10.666667 4.266667-10.666667 10.666667z m704-128c0-6.4-4.266667-10.666667-10.666667-10.666667H298.666667c-6.4 0-10.666667 4.266667-10.666667 10.666667v53.333333H725.333333c40.533333 0 74.666667 34.133333 74.666667 74.666667V608H853.333333c6.4 0 10.666667-4.266667 10.666667-10.666667v-554.666666zM576 480h-96V576c0 17.066667-14.933333 32-32 32s-32-14.933333-32-32v-96H320c-17.066667 0-32-14.933333-32-32s14.933333-32 32-32h96V320c0-17.066667 14.933333-32 32-32s32 14.933333 32 32v96H576c17.066667 0 32 14.933333 32 32s-14.933333 32-32 32z"  horiz-adv-x="1024" />

    
    <glyph glyph-name="cut" unicode="&#59031;" d="M917.333333 693.333333h-96V789.333333c0 17.066667-14.933333 32-32 32s-32-14.933333-32-32v-96H277.333333c-40.533333 0-74.666667-34.133333-74.666666-74.666666v-480H106.666667c-17.066667 0-32-14.933333-32-32s14.933333-32 32-32h96V-21.333333c0-17.066667 14.933333-32 32-32s32 14.933333 32 32v96H746.666667c40.533333 0 74.666667 34.133333 74.666666 74.666666V629.333333H917.333333c17.066667 0 32 14.933333 32 32s-14.933333 32-32 32zM757.333333 149.333333c0-6.4-4.266667-10.666667-10.666666-10.666666H266.666667V618.666667c0 6.4 4.266667 10.666667 10.666666 10.666666h480V149.333333z"  horiz-adv-x="1024" />

    
    <glyph glyph-name="data-view" unicode="&#59032;" d="M874.666667 32H170.666667c-6.4 0-10.666667 4.266667-10.666667 10.666667V746.666667c0 17.066667-14.933333 32-32 32S96 763.733333 96 746.666667v-704c0-40.533333 34.133333-74.666667 74.666667-74.666667h704c17.066667 0 32 14.933333 32 32s-14.933333 32-32 32zM437.333333 426.666667v-320c0-17.066667 14.933333-32 32-32s32 14.933333 32 32V426.666667c0 17.066667-14.933333 32-32 32s-32-14.933333-32-32zM298.666667 74.666667c17.066667 0 32 14.933333 32 32V362.666667c0 17.066667-14.933333 32-32 32s-32-14.933333-32-32v-256c0-17.066667 14.933333-32 32-32zM640 330.666667c-17.066667 0-32-14.933333-32-32v-192c0-17.066667 14.933333-32 32-32s32 14.933333 32 32v192c0 17.066667-14.933333 32-32 32zM810.666667 544c-17.066667 0-32-14.933333-32-32v-405.333333c0-17.066667 14.933333-32 32-32s32 14.933333 32 32V512c0 17.066667-14.933333 32-32 32zM322.133333 488.533333l147.2 147.2 147.2-147.2c6.4-6.4 14.933333-8.533333 23.466667-8.533333h2.133333c8.533333 0 17.066667 6.4 23.466667 12.8l170.666667 234.666667c10.666667 14.933333 6.4 34.133333-6.4 44.8-14.933333 10.666667-34.133333 6.4-44.8-6.4l-149.333334-204.8L490.666667 706.133333c-12.8 12.8-32 12.8-44.8 0l-170.666667-170.666666c-12.8-12.8-12.8-32 0-44.8 12.8-12.8 34.133333-12.8 46.933333-2.133334z"  horiz-adv-x="1024" />

    
    <glyph glyph-name="direction-right" unicode="&#59033;" d="M904.533333 373.333333c2.133333 4.266667 2.133333 6.4 2.133334 10.666667s0 8.533333-2.133334 10.666667c-2.133333 4.266667-4.266667 6.4-6.4 8.533333l-341.333333 362.666667c-12.8 12.8-32 12.8-44.8 2.133333-12.8-12.8-12.8-32-2.133333-44.8l290.133333-309.333333H149.333333c-17.066667 0-32-14.933333-32-32s14.933333-32 32-32h650.666667L509.866667 42.666667c-12.8-12.8-10.666667-34.133333 2.133333-44.8 6.4-6.4 14.933333-8.533333 21.333333-8.533334 8.533333 0 17.066667 4.266667 23.466667 10.666667l341.333333 362.666667c2.133333 2.133333 4.266667 6.4 6.4 10.666666z"  horiz-adv-x="1024" />

    
    <glyph glyph-name="direction-up" unicode="&#59034;" d="M896 428.8l-362.666667 341.333333c-2.133333 2.133333-6.4 4.266667-8.533333 6.4-4.266667 2.133333-6.4 2.133333-10.666667 2.133334s-8.533333 0-10.666666-2.133334c-4.266667-2.133333-6.4-4.266667-8.533334-6.4l-362.666666-341.333333c-12.8-12.8-12.8-32-2.133334-44.8 12.8-12.8 32-12.8 44.8-2.133333l309.333334 290.133333V21.333333c0-17.066667 14.933333-32 32-32s32 14.933333 32 32V672L853.333333 381.866667c6.4-6.4 14.933333-8.533333 21.333334-8.533334 8.533333 0 17.066667 4.266667 23.466666 10.666667 12.8 12.8 10.666667 32-2.133333 44.8z"  horiz-adv-x="1024" />

    
    <glyph glyph-name="discount" unicode="&#59035;" d="M874.666667 800H593.066667c-19.2 0-38.4-8.533333-53.333334-21.333333l-405.333333-405.333334c-29.866667-29.866667-29.866667-76.8 0-104.533333l260.266667-260.266667c14.933333-14.933333 32-21.333333 53.333333-21.333333s38.4 8.533333 53.333333 21.333333l405.333334 405.333334c14.933333 14.933333 21.333333 32 21.333333 53.333333V746.666667c0 29.866667-23.466667 53.333333-53.333333 53.333333z m-10.666667-334.933333c0-2.133333-2.133333-6.4-2.133333-8.533334l-405.333334-405.333333c-2.133333-2.133333-6.4-2.133333-8.533333-2.133333s-4.266667 0-8.533333 2.133333L181.333333 311.466667c-4.266667 4.266667-4.266667 10.666667 0 14.933333l405.333334 405.333333c2.133333 2.133333 4.266667 2.133333 8.533333 2.133334h270.933333v-268.8zM704 480c53.333333 0 96 42.666667 96 96s-42.666667 96-96 96-96-42.666667-96-96 42.666667-96 96-96z m0 128c17.066667 0 32-14.933333 32-32s-14.933333-32-32-32-32 14.933333-32 32 14.933333 32 32 32z"  horiz-adv-x="1024" />

    
    <glyph glyph-name="direction-left" unicode="&#59036;" d="M874.666667 416H224L514.133333 725.333333c12.8 12.8 10.666667 34.133333-2.133333 44.8s-32 10.666667-44.8-2.133333l-341.333333-362.666667c-2.133333-2.133333-4.266667-6.4-6.4-8.533333-2.133333-4.266667-2.133333-6.4-2.133334-10.666667s0-8.533333 2.133334-10.666666c2.133333-4.266667 4.266667-6.4 6.4-8.533334l341.333333-362.666666c6.4-6.4 14.933333-10.666667 23.466667-10.666667 8.533333 0 14.933333 2.133333 21.333333 8.533333 12.8 12.8 12.8 32 2.133333 44.8L224 352H874.666667c17.066667 0 32 14.933333 32 32s-14.933333 32-32 32z"  horiz-adv-x="1024" />

    
    <glyph glyph-name="download" unicode="&#59037;" d="M896 224c-17.066667 0-32-14.933333-32-32v-128c0-6.4-4.266667-10.666667-10.666667-10.666667H170.666667c-6.4 0-10.666667 4.266667-10.666667 10.666667v128c0 17.066667-14.933333 32-32 32s-32-14.933333-32-32v-128c0-40.533333 34.133333-74.666667 74.666667-74.666667h682.666666c40.533333 0 74.666667 34.133333 74.666667 74.666667v128c0 17.066667-14.933333 32-32 32zM488.533333 168.533333c6.4-6.4 14.933333-8.533333 23.466667-8.533333s17.066667 2.133333 23.466667 8.533333l213.333333 213.333334c12.8 12.8 12.8 32 0 44.8-12.8 12.8-32 12.8-44.8 0l-157.866667-157.866667V725.333333c0 17.066667-14.933333 32-32 32s-34.133333-14.933333-34.133333-32v-456.533333L322.133333 426.666667c-12.8 12.8-32 12.8-44.8 0-12.8-12.8-12.8-32 0-44.8l211.2-213.333334z"  horiz-adv-x="1024" />

    
    <glyph glyph-name="electronics" unicode="&#59038;" d="M840.533333 778.666667H183.466667c-59.733333 0-108.8-49.066667-108.8-108.8v-379.733334c0-59.733333 49.066667-108.8 108.8-108.8h232.533333v-115.2H341.333333c-17.066667 0-32-14.933333-32-32s14.933333-32 32-32h341.333334c17.066667 0 32 14.933333 32 32s-14.933333 32-32 32h-74.666667v115.2h232.533333c59.733333 0 108.8 49.066667 108.8 108.8V669.866667c0 59.733333-49.066667 108.8-108.8 108.8zM544 66.133333h-64v115.2h64v-115.2z m341.333333 224c0-25.6-19.2-44.8-44.8-44.8H183.466667c-25.6 0-44.8 19.2-44.8 44.8V669.866667c0 25.6 19.2 44.8 44.8 44.8h657.066666c25.6 0 44.8-19.2 44.8-44.8v-379.733334z"  horiz-adv-x="1024" />

    
    <glyph glyph-name="drag" unicode="&#59039;" d="M362.666667 704m-64 0a64 64 0 1 1 128 0 64 64 0 1 1-128 0ZM661.333333 704m-64 0a64 64 0 1 1 128 0 64 64 0 1 1-128 0ZM362.666667 384m-64 0a64 64 0 1 1 128 0 64 64 0 1 1-128 0ZM661.333333 384m-64 0a64 64 0 1 1 128 0 64 64 0 1 1-128 0ZM362.666667 64m-64 0a64 64 0 1 1 128 0 64 64 0 1 1-128 0ZM661.333333 64m-64 0a64 64 0 1 1 128 0 64 64 0 1 1-128 0Z"  horiz-adv-x="1024" />

    
    <glyph glyph-name="elipsis" unicode="&#59040;" d="M192 384m-64 0a64 64 0 1 1 128 0 64 64 0 1 1-128 0ZM512 384m-64 0a64 64 0 1 1 128 0 64 64 0 1 1-128 0ZM832 384m-64 0a64 64 0 1 1 128 0 64 64 0 1 1-128 0Z"  horiz-adv-x="1024" />

    
    <glyph glyph-name="export" unicode="&#59041;" d="M582.4 32H170.666667c-6.4 0-10.666667 4.266667-10.666667 10.666667V725.333333c0 6.4 4.266667 10.666667 10.666667 10.666667h309.333333V576c0-40.533333 34.133333-74.666667 74.666667-74.666667h160v-38.4c0-17.066667 14.933333-32 32-32s32 14.933333 32 32V597.333333c0 8.533333-4.266667 17.066667-8.533334 23.466667l-170.666666 170.666667c-6.4 6.4-14.933333 8.533333-23.466667 8.533333H170.666667C130.133333 800 96 765.866667 96 725.333333v-682.666666c0-40.533333 34.133333-74.666667 74.666667-74.666667h411.733333c17.066667 0 32 14.933333 32 32s-14.933333 32-32 32z m132.266667 550.4v-17.066667H554.666667c-6.4 0-10.666667 4.266667-10.666667 10.666667V736h19.2l151.466667-153.6zM866.133333 226.133333l-106.666666 106.666667c-12.8 12.8-32 12.8-44.8 0s-12.8-32 0-44.8l51.2-51.2H512c-17.066667 0-32-14.933333-32-32S494.933333 170.666667 512 170.666667h253.866667l-51.2-51.2c-12.8-12.8-12.8-32 0-44.8 6.4-6.4 14.933333-8.533333 23.466666-8.533334s17.066667 2.133333 23.466667 8.533334l106.666667 106.666666c8.533333 10.666667 8.533333 32-2.133334 44.8z"  horiz-adv-x="1024" />

    
    <glyph glyph-name="explain" unicode="&#59042;" d="M789.333333 821.333333H234.666667C194.133333 821.333333 160 787.2 160 746.666667v-725.333334c0-40.533333 34.133333-74.666667 74.666667-74.666666h554.666666c40.533333 0 74.666667 34.133333 74.666667 74.666666V746.666667c0 40.533333-34.133333 74.666667-74.666667 74.666666z m-138.666666-64v-296.533333L576 531.2c-6.4 6.4-14.933333 8.533333-21.333333 8.533333-8.533333 0-17.066667-2.133333-21.333334-8.533333l-74.666666-72.533333v298.666666h192z m149.333333-736c0-6.4-4.266667-10.666667-10.666667-10.666666H234.666667c-6.4 0-10.666667 4.266667-10.666667 10.666666V746.666667c0 6.4 4.266667 10.666667 10.666667 10.666666h160v-322.133333c0-14.933333 6.4-27.733333 14.933333-36.266667 21.333333-21.333333 53.333333-21.333333 74.666667 0l70.4 68.266667 70.4-68.266667c10.666667-10.666667 23.466667-14.933333 36.266666-14.933333 29.866667 0 53.333333 23.466667 53.333334 53.333333v320H789.333333c6.4 0 10.666667-4.266667 10.666667-10.666666v-725.333334z"  horiz-adv-x="1024" />

    
    <glyph glyph-name="edit" unicode="&#59043;" d="M853.333333 394.666667c-17.066667 0-32-14.933333-32-32v-320c0-6.4-4.266667-10.666667-10.666666-10.666667H170.666667c-6.4 0-10.666667 4.266667-10.666667 10.666667V682.666667c0 6.4 4.266667 10.666667 10.666667 10.666666h320c17.066667 0 32 14.933333 32 32s-14.933333 32-32 32H170.666667c-40.533333 0-74.666667-34.133333-74.666667-74.666666v-640c0-40.533333 34.133333-74.666667 74.666667-74.666667h640c40.533333 0 74.666667 34.133333 74.666666 74.666667V362.666667c0 17.066667-14.933333 32-32 32zM405.333333 411.733333l-32-125.866666c-2.133333-10.666667 0-23.466667 8.533334-29.866667 6.4-6.4 14.933333-8.533333 23.466666-8.533333h8.533334l125.866666 32c6.4 2.133333 10.666667 4.266667 14.933334 8.533333l300.8 300.8c38.4 38.4 38.4 102.4 0 140.8-38.4 38.4-102.4 38.4-140.8 0L413.866667 426.666667c-4.266667-4.266667-6.4-8.533333-8.533334-14.933334z m59.733334-23.466666L761.6 682.666667c12.8 12.8 36.266667 12.8 49.066667 0 12.8-12.8 12.8-36.266667 0-49.066667L516.266667 337.066667l-66.133334-17.066667 14.933334 68.266667z"  horiz-adv-x="1024" />

    
    <glyph glyph-name="eye-close" unicode="&#59044;" d="M955.733333 403.2c-6.4 12.8-162.133333 317.866667-443.733333 317.866667-23.466667 0-46.933333-2.133333-70.4-6.4-17.066667-4.266667-29.866667-19.2-25.6-36.266667 4.266667-17.066667 19.2-29.866667 36.266667-25.6 19.2 4.266667 38.4 4.266667 57.6 4.266667 209.066667 0 345.6-209.066667 379.733333-266.666667-10.666667-19.2-32-53.333333-64-91.733333-10.666667-12.8-8.533333-34.133333 4.266667-44.8 6.4-4.266667 12.8-6.4 21.333333-6.4s19.2 4.266667 25.6 10.666666c51.2 61.866667 78.933333 115.2 78.933333 117.333334 6.4 8.533333 6.4 19.2 0 27.733333zM215.466667 770.133333c-12.8 12.8-32 12.8-44.8 0-12.8-12.8-12.8-32 0-44.8l91.733333-91.733333C138.666667 541.866667 72.533333 411.733333 68.266667 405.333333c-4.266667-8.533333-4.266667-19.2 0-29.866666 6.4-12.8 162.133333-315.733333 443.733333-315.733334 83.2 0 164.266667 27.733333 241.066667 81.066667l96-96c6.4-6.4 14.933333-8.533333 23.466666-8.533333s17.066667 2.133333 23.466667 8.533333c12.8 12.8 12.8 32 0 44.8L215.466667 770.133333z m243.2-334.933333l104.533333-104.533333c-12.8-12.8-32-21.333333-51.2-21.333334-40.533333 0-74.666667 34.133333-74.666667 74.666667 0 19.2 8.533333 38.4 21.333334 51.2zM512 123.733333c-209.066667 0-345.6 209.066667-379.733333 266.666667 21.333333 36.266667 81.066667 130.133333 174.933333 196.266667l104.533333-104.533334c-25.6-25.6-38.4-59.733333-38.4-96 0-76.8 61.866667-138.666667 138.666667-138.666666 36.266667 0 70.4 14.933333 96 38.4l98.133333-98.133334c-61.866667-42.666667-128-64-194.133333-64z"  horiz-adv-x="1024" />

    
    <glyph glyph-name="email" unicode="&#59045;" d="M874.666667 714.666667H149.333333c-40.533333 0-74.666667-34.133333-74.666666-74.666667v-512c0-40.533333 34.133333-74.666667 74.666666-74.666667h725.333334c40.533333 0 74.666667 34.133333 74.666666 74.666667V640c0 40.533333-34.133333 74.666667-74.666666 74.666667z m-725.333334-64h725.333334c6.4 0 10.666667-4.266667 10.666666-10.666667v-25.6L512 379.733333l-373.333333 234.666667V640c0 6.4 4.266667 10.666667 10.666666 10.666667z m725.333334-533.333334H149.333333c-6.4 0-10.666667 4.266667-10.666666 10.666667V539.733333l356.266666-224c4.266667-4.266667 10.666667-4.266667 17.066667-4.266666s12.8 2.133333 17.066667 4.266666l356.266666 224V128c0-6.4-4.266667-10.666667-10.666666-10.666667z"  horiz-adv-x="1024" />

    
    <glyph glyph-name="favorite" unicode="&#59046;" d="M934.4 539.733333c-8.533333 10.666667-21.333333 19.2-34.133333 21.333334l-234.666667 34.133333-104.533333 213.333333c-6.4 8.533333-14.933333 17.066667-25.6 23.466667-12.8 6.4-27.733333 6.4-40.533334 2.133333-12.8-4.266667-23.466667-14.933333-29.866666-27.733333l-104.533334-213.333333-234.666666-34.133334c-10.666667-2.133333-21.333333-6.4-29.866667-14.933333-21.333333-21.333333-19.2-55.466667 0-74.666667l170.666667-166.4-40.533334-234.666666c-2.133333-10.666667 0-23.466667 6.4-34.133334 12.8-25.6 46.933333-36.266667 72.533334-21.333333l211.2 110.933333 211.2-110.933333c8.533333-4.266667 17.066667-6.4 25.6-6.4h8.533333c14.933333 2.133333 25.6 10.666667 34.133333 21.333333 8.533333 10.666667 10.666667 25.6 8.533334 40.533334l-40.533334 234.666666 170.666667 166.4c8.533333 8.533333 14.933333 19.2 14.933333 29.866667-2.133333 14.933333-6.4 27.733333-14.933333 40.533333z m-224-194.133333c-12.8-12.8-19.2-29.866667-14.933333-46.933333l38.4-217.6L512 196.266667l-221.866667-115.2L328.533333 298.666667c2.133333 17.066667-2.133333 34.133333-14.933333 46.933333l-157.866667 153.6 219.733334 32c17.066667 2.133333 32 12.8 40.533333 29.866667L512 759.466667l98.133333-198.4c8.533333-14.933333 23.466667-27.733333 40.533334-29.866667l219.733333-32-160-153.6z"  horiz-adv-x="1024" />

    
    <glyph glyph-name="file-common" unicode="&#59047;" d="M832 821.333333H192c-17.066667 0-32-14.933333-32-32v-765.866666c0-12.8 4.266667-23.466667 12.8-34.133334 8.533333-10.666667 21.333333-17.066667 36.266667-19.2h6.4c12.8 0 23.466667 4.266667 34.133333 12.8l264.533333 213.333334 264.533334-213.333334c8.533333-8.533333 21.333333-12.8 34.133333-12.8 29.866667 0 53.333333 23.466667 53.333333 53.333334V789.333333c-2.133333 17.066667-17.066667 32-34.133333 32z m-32-776.533333L531.2 262.4c-10.666667 8.533333-27.733333 8.533333-40.533333 0L224 44.8V757.333333h576v-712.533333zM341.333333 554.666667h320c17.066667 0 32 14.933333 32 32S678.4 618.666667 661.333333 618.666667H341.333333c-17.066667 0-32-14.933333-32-32S324.266667 554.666667 341.333333 554.666667zM341.333333 384h213.333334c17.066667 0 32 14.933333 32 32S571.733333 448 554.666667 448H341.333333c-17.066667 0-32-14.933333-32-32S324.266667 384 341.333333 384z"  horiz-adv-x="1024" />

    
    <glyph glyph-name="file-delete" unicode="&#59048;" d="M842.666667 610.133333l-187.733334 187.733334c-14.933333 14.933333-32 21.333333-53.333333 21.333333H234.666667C194.133333 821.333333 160 787.2 160 746.666667v-725.333334c0-40.533333 34.133333-74.666667 74.666667-74.666666h554.666666c40.533333 0 74.666667 34.133333 74.666667 74.666666V558.933333c0 19.2-8.533333 38.4-21.333333 51.2z m-44.8-44.8c-2.133333-2.133333-4.266667 0-8.533334 0h-170.666666c-6.4 0-10.666667 4.266667-10.666667 10.666667V746.666667c0 2.133333 0 6.4-2.133333 8.533333 0 0 2.133333 0 2.133333-2.133333l189.866667-187.733334z m-8.533334-554.666666H234.666667c-6.4 0-10.666667 4.266667-10.666667 10.666666V746.666667c0 6.4 4.266667 10.666667 10.666667 10.666666h311.466666c-2.133333-4.266667-2.133333-6.4-2.133333-10.666666v-170.666667c0-40.533333 34.133333-74.666667 74.666667-74.666667h170.666666c4.266667 0 6.4 0 10.666667 2.133334V21.333333c0-6.4-4.266667-10.666667-10.666667-10.666666zM640 309.333333H384c-17.066667 0-32-14.933333-32-32s14.933333-32 32-32h256c17.066667 0 32 14.933333 32 32s-14.933333 32-32 32z"  horiz-adv-x="1024" />

    
    <glyph glyph-name="file-add" unicode="&#59049;" d="M842.666667 610.133333l-187.733334 187.733334c-14.933333 14.933333-32 21.333333-53.333333 21.333333H234.666667C194.133333 821.333333 160 787.2 160 746.666667v-725.333334c0-40.533333 34.133333-74.666667 74.666667-74.666666h554.666666c40.533333 0 74.666667 34.133333 74.666667 74.666666V558.933333c0 19.2-8.533333 38.4-21.333333 51.2z m-44.8-44.8H618.666667c-6.4 0-10.666667 4.266667-10.666667 10.666667V755.2l189.866667-189.866667z m-8.533334-554.666666H234.666667c-6.4 0-10.666667 4.266667-10.666667 10.666666V746.666667c0 6.4 4.266667 10.666667 10.666667 10.666666h309.333333V576c0-40.533333 34.133333-74.666667 74.666667-74.666667h181.333333V21.333333c0-6.4-4.266667-10.666667-10.666667-10.666666zM618.666667 309.333333h-74.666667V384c0 17.066667-14.933333 32-32 32s-32-14.933333-32-32v-74.666667H405.333333c-17.066667 0-32-14.933333-32-32s14.933333-32 32-32h74.666667V170.666667c0-17.066667 14.933333-32 32-32s32 14.933333 32 32v74.666666H618.666667c17.066667 0 32 14.933333 32 32s-14.933333 32-32 32z"  horiz-adv-x="1024" />

    
    <glyph glyph-name="fabulous" unicode="&#59050;" d="M859.733333 642.133333c-44.8 44.8-102.4 70.4-166.4 70.4-61.866667 0-121.6-25.6-166.4-70.4l-14.933333-17.066666-17.066667 17.066666c-44.8 44.8-102.4 70.4-166.4 70.4-61.866667 0-121.6-25.6-166.4-70.4-91.733333-91.733333-91.733333-243.2 0-337.066666l324.266667-330.666667c6.4-6.4 14.933333-8.533333 23.466667-8.533333s17.066667 4.266667 23.466666 8.533333l324.266667 330.666667c44.8 44.8 68.266667 104.533333 68.266667 168.533333s-21.333333 123.733333-66.133334 168.533333z m-44.8-290.133333L512 42.666667 209.066667 352c-66.133333 68.266667-66.133333 179.2 0 247.466667 32 32 74.666667 51.2 119.466666 51.2 44.8 0 87.466667-17.066667 119.466667-51.2l38.4-40.533334c12.8-12.8 34.133333-12.8 44.8 0l38.4 40.533334c32 32 74.666667 51.2 119.466667 51.2 44.8 0 87.466667-17.066667 119.466666-51.2 32-32 49.066667-76.8 49.066667-123.733334s-12.8-91.733333-42.666667-123.733333z"  horiz-adv-x="1024" />

    
    <glyph glyph-name="file" unicode="&#59051;" d="M842.666667 610.133333l-187.733334 187.733334c-14.933333 14.933333-32 21.333333-53.333333 21.333333H234.666667C194.133333 821.333333 160 787.2 160 746.666667v-725.333334c0-40.533333 34.133333-74.666667 74.666667-74.666666h554.666666c40.533333 0 74.666667 34.133333 74.666667 74.666666V558.933333c0 19.2-8.533333 38.4-21.333333 51.2z m-44.8-44.8c-2.133333-2.133333-4.266667 0-8.533334 0h-170.666666c-6.4 0-10.666667 4.266667-10.666667 10.666667V746.666667c0 2.133333 0 6.4-2.133333 8.533333 0 0 2.133333 0 2.133333-2.133333l189.866667-187.733334z m-8.533334-554.666666H234.666667c-6.4 0-10.666667 4.266667-10.666667 10.666666V746.666667c0 6.4 4.266667 10.666667 10.666667 10.666666h311.466666c-2.133333-4.266667-2.133333-6.4-2.133333-10.666666v-170.666667c0-40.533333 34.133333-74.666667 74.666667-74.666667h170.666666c4.266667 0 6.4 0 10.666667 2.133334V21.333333c0-6.4-4.266667-10.666667-10.666667-10.666666zM640 202.666667H341.333333c-17.066667 0-32-14.933333-32-32s14.933333-32 32-32h298.666667c17.066667 0 32 14.933333 32 32s-14.933333 32-32 32zM640 373.333333H341.333333c-17.066667 0-32-14.933333-32-32s14.933333-32 32-32h298.666667c17.066667 0 32 14.933333 32 32s-14.933333 32-32 32zM341.333333 480h85.333334c17.066667 0 32 14.933333 32 32s-14.933333 32-32 32h-85.333334c-17.066667 0-32-14.933333-32-32s14.933333-32 32-32z"  horiz-adv-x="1024" />

    
    <glyph glyph-name="folder-close" unicode="&#59052;" d="M853.333333 629.333333H514.133333c-4.266667 0-6.4 2.133333-8.533333 4.266667l-38.4 66.133333c-12.8 21.333333-38.4 36.266667-64 36.266667H170.666667c-40.533333 0-74.666667-34.133333-74.666667-74.666667v-554.666666c0-40.533333 34.133333-74.666667 74.666667-74.666667h682.666666c40.533333 0 74.666667 34.133333 74.666667 74.666667V554.666667c0 40.533333-34.133333 74.666667-74.666667 74.666666z m-682.666666 42.666667h232.533333c4.266667 0 6.4-2.133333 8.533333-4.266667l38.4-66.133333c12.8-21.333333 38.4-36.266667 64-36.266667H853.333333c6.4 0 10.666667-4.266667 10.666667-10.666666v-74.666667h-704V661.333333c0 6.4 4.266667 10.666667 10.666667 10.666667z m682.666666-576H170.666667c-6.4 0-10.666667 4.266667-10.666667 10.666667V416h704V106.666667c0-6.4-4.266667-10.666667-10.666667-10.666667z"  horiz-adv-x="1024" />

    
    <glyph glyph-name="good" unicode="&#59053;" d="M881.066667 501.333333c-21.333333 23.466667-51.2 36.266667-81.066667 36.266667H618.666667v117.333333c0 44.8-29.866667 85.333333-87.466667 117.333334-17.066667 10.666667-38.4 12.8-57.6 8.533333-19.2-4.266667-36.266667-17.066667-46.933333-34.133333-2.133333-2.133333-2.133333-4.266667-4.266667-6.4l-125.866667-281.6H204.8c-59.733333 0-108.8-46.933333-108.8-106.666667v-258.133333c0-57.6 49.066667-106.666667 108.8-106.666667h544c53.333333 0 98.133333 38.4 106.666667 89.6l51.2 337.066667c4.266667 34.133333-6.4 64-25.6 87.466666z m-593.066667-448H204.8c-25.6 0-44.8 19.2-44.8 42.666667v256c0 23.466667 19.2 42.666667 44.8 42.666667h83.2v-341.333334z m554.666667 373.333334L789.333333 89.6c-4.266667-21.333333-21.333333-36.266667-42.666666-36.266667H352V424.533333l130.133333 290.133334c2.133333 4.266667 4.266667 4.266667 6.4 4.266666 2.133333 0 4.266667 0 8.533334-2.133333 25.6-14.933333 55.466667-38.4 55.466666-64v-149.333333c0-17.066667 14.933333-32 32-32h213.333334c12.8 0 25.6-4.266667 34.133333-14.933334 8.533333-6.4 12.8-19.2 10.666667-29.866666z"  horiz-adv-x="1024" />

    
    <glyph glyph-name="hide" unicode="&#59054;" d="M917.333333 322.133333l-87.466666 87.466667c34.133333 32 66.133333 68.266667 91.733333 108.8 8.533333 14.933333 4.266667 34.133333-10.666667 44.8-14.933333 8.533333-34.133333 4.266667-44.8-10.666667-76.8-125.866667-209.066667-200.533333-356.266666-200.533333-145.066667 0-279.466667 74.666667-354.133334 198.4-8.533333 14.933333-29.866667 19.2-44.8 10.666667-14.933333-8.533333-19.2-29.866667-10.666666-44.8 25.6-40.533333 55.466667-76.8 91.733333-108.8l-85.333333-85.333334c-12.8-12.8-12.8-32 0-44.8 6.4-6.4 14.933333-8.533333 23.466666-8.533333s17.066667 2.133333 23.466667 8.533333l91.733333 91.733334c38.4-25.6 81.066667-46.933333 125.866667-59.733334l-34.133333-130.133333c-4.266667-17.066667 6.4-34.133333 23.466666-38.4 2.133333 0 6.4-2.133333 8.533334-2.133333 14.933333 0 27.733333 8.533333 29.866666 23.466666l36.266667 132.266667c25.6-4.266667 51.2-6.4 78.933333-6.4 27.733333 0 55.466667 2.133333 83.2 6.4l36.266667-132.266667c4.266667-14.933333 17.066667-23.466667 29.866667-23.466666 2.133333 0 6.4 0 8.533333 2.133333 17.066667 4.266667 27.733333 21.333333 23.466667 38.4L661.333333 311.466667c44.8 12.8 85.333333 34.133333 123.733334 59.733333l91.733333-91.733333c6.4-6.4 14.933333-8.533333 23.466667-8.533334s17.066667 2.133333 23.466666 8.533334c6.4 10.666667 6.4 29.866667-6.4 42.666666z"  horiz-adv-x="1024" />

    
    <glyph glyph-name="file-open" unicode="&#59055;" d="M921.6 445.866667c-6.4 8.533333-14.933333 12.8-25.6 12.8h-10.666667V554.666667c0 40.533333-34.133333 74.666667-74.666666 74.666666H514.133333c-4.266667 0-6.4 2.133333-8.533333 4.266667l-38.4 66.133333c-12.8 21.333333-38.4 36.266667-64 36.266667H170.666667c-40.533333 0-74.666667-34.133333-74.666667-74.666667v-597.333333c0-6.4 2.133333-12.8 6.4-19.2 6.4-8.533333 14.933333-12.8 25.6-12.8h640c12.8 0 25.6 8.533333 29.866667 21.333333l128 362.666667c4.266667 10.666667 2.133333 21.333333-4.266667 29.866667zM170.666667 672h232.533333c4.266667 0 6.4-2.133333 8.533333-4.266667l38.4-66.133333c12.8-21.333333 38.4-36.266667 64-36.266667H810.666667c6.4 0 10.666667-4.266667 10.666666-10.666666v-96H256c-12.8 0-25.6-8.533333-29.866667-21.333334l-66.133333-185.6V661.333333c0 6.4 4.266667 10.666667 10.666667 10.666667z m573.866666-576H172.8l104.533333 298.666667h571.733334l-104.533334-298.666667z"  horiz-adv-x="1024" />

    
    <glyph glyph-name="forward" unicode="&#59056;" d="M853.333333 138.666667H170.666667c-6.4 0-10.666667 4.266667-10.666667 10.666666V576c0 6.4 4.266667 10.666667 10.666667 10.666667h599.466666l-83.2-83.2c-12.8-12.8-12.8-34.133333 0-46.933334 6.4-6.4 14.933333-10.666667 23.466667-10.666666s17.066667 4.266667 23.466667 10.666666l145.066666 145.066667c12.8 12.8 12.8 34.133333 0 46.933333l-145.066666 145.066667c-12.8 12.8-34.133333 12.8-46.933334 0-12.8-12.8-12.8-34.133333 0-46.933333l93.866667-93.866667H170.666667c-40.533333 0-74.666667-34.133333-74.666667-74.666667v-426.666666c0-40.533333 34.133333-74.666667 74.666667-74.666667h682.666666c17.066667 0 32 14.933333 32 32s-14.933333 29.866667-32 29.866667z"  horiz-adv-x="1024" />

    
    <glyph glyph-name="import" unicode="&#59057;" d="M667.733333 32H170.666667c-6.4 0-10.666667 4.266667-10.666667 10.666667V725.333333c0 6.4 4.266667 10.666667 10.666667 10.666667h309.333333V576c0-40.533333 34.133333-74.666667 74.666667-74.666667h160v-38.4c0-17.066667 14.933333-32 32-32s32 14.933333 32 32V597.333333c0 8.533333-4.266667 17.066667-8.533334 23.466667l-170.666666 170.666667c-6.4 6.4-14.933333 8.533333-23.466667 8.533333H170.666667C130.133333 800 96 765.866667 96 725.333333v-682.666666c0-40.533333 34.133333-74.666667 74.666667-74.666667h497.066666c17.066667 0 32 14.933333 32 32s-14.933333 32-32 32z m46.933334 550.4v-17.066667H554.666667c-6.4 0-10.666667 4.266667-10.666667 10.666667V736h19.2l151.466667-153.6zM853.333333 298.666667H599.466667l51.2 51.2c12.8 12.8 12.8 32 0 44.8-12.8 12.8-32 12.8-44.8 0l-106.666667-106.666667c-12.8-12.8-12.8-32 0-44.8l106.666667-106.666667c6.4-6.4 14.933333-8.533333 23.466666-8.533333s17.066667 2.133333 23.466667 8.533333c12.8 12.8 12.8 32 0 44.8L599.466667 234.666667H853.333333c17.066667 0 32 14.933333 32 32S870.4 298.666667 853.333333 298.666667z"  horiz-adv-x="1024" />

    
    <glyph glyph-name="link" unicode="&#59058;" d="M861.866667 731.733333c-87.466667 87.466667-230.4 89.6-320 2.133334l-68.266667-68.266667c-12.8-12.8-12.8-32 0-44.8s32-12.8 44.8 0l68.266667 68.266667c64 61.866667 166.4 61.866667 230.4-2.133334 64-64 64-168.533333 2.133333-232.533333l-117.333333-119.466667c-34.133333-34.133333-81.066667-51.2-128-49.066666-46.933333 4.266667-91.733333 27.733333-119.466667 66.133333-10.666667 14.933333-29.866667 17.066667-44.8 6.4-14.933333-10.666667-17.066667-29.866667-6.4-44.8 40.533333-53.333333 100.266667-87.466667 166.4-91.733333h17.066667c59.733333 0 119.466667 23.466667 162.133333 68.266666l117.333333 119.466667c83.2 89.6 83.2 234.666667-4.266666 322.133333zM505.6 145.066667l-66.133333-68.266667c-64-61.866667-166.4-61.866667-230.4 2.133333-64 64-64 168.533333-2.133334 232.533334l117.333334 119.466666c34.133333 34.133333 81.066667 51.2 128 49.066667 46.933333-4.266667 91.733333-27.733333 119.466666-66.133333 10.666667-14.933333 29.866667-17.066667 44.8-6.4 14.933333 10.666667 17.066667 29.866667 6.4 44.8-40.533333 53.333333-100.266667 87.466667-166.4 91.733333-66.133333 4.266667-130.133333-19.2-177.066666-66.133333l-117.333334-119.466667c-85.333333-89.6-85.333333-234.666667 2.133334-322.133333 44.8-44.8 102.4-66.133333 162.133333-66.133334 57.6 0 115.2 21.333333 160 64l66.133333 68.266667c12.8 12.8 12.8 32 0 44.8-14.933333 10.666667-34.133333 10.666667-46.933333-2.133333z"  horiz-adv-x="1024" />

    
    <glyph glyph-name="layout" unicode="&#59059;" d="M853.333333 800H170.666667C130.133333 800 96 765.866667 96 725.333333v-682.666666c0-40.533333 34.133333-74.666667 74.666667-74.666667h682.666666c40.533333 0 74.666667 34.133333 74.666667 74.666667V725.333333c0 40.533333-34.133333 74.666667-74.666667 74.666667z m-682.666666-64h682.666666c6.4 0 10.666667-4.266667 10.666667-10.666667v-213.333333h-704V725.333333c0 6.4 4.266667 10.666667 10.666667 10.666667zM160 42.666667V448H341.333333v-416H170.666667c-6.4 0-10.666667 4.266667-10.666667 10.666667z m693.333333-10.666667H405.333333V448h458.666667v-405.333333c0-6.4-4.266667-10.666667-10.666667-10.666667z"  horiz-adv-x="1024" />

    
    <glyph glyph-name="fullscreen-shrink" unicode="&#59060;" d="M313.6 537.6H177.066667c-17.066667 0-32-14.933333-32-32s14.933333-32 32-32h213.333333c4.266667 0 8.533333 0 10.666667 2.133333 8.533333 4.266667 14.933333 8.533333 17.066666 17.066667 2.133333 4.266667 2.133333 8.533333 2.133334 10.666667v213.333333c0 17.066667-14.933333 32-32 32s-32-14.933333-32-32v-136.533333L172.8 770.133333c-12.8 12.8-32 12.8-44.8 0-12.8-12.8-12.8-32 0-44.8l185.6-187.733333zM695.466667 245.333333H832c17.066667 0 32 14.933333 32 32s-14.933333 32-32 32H618.666667c-4.266667 0-8.533333 0-10.666667-2.133333-8.533333-4.266667-14.933333-8.533333-17.066667-17.066667-2.133333-4.266667-2.133333-8.533333-2.133333-10.666666v-213.333334c0-17.066667 14.933333-32 32-32s32 14.933333 32 32v136.533334l200.533333-200.533334c6.4-6.4 14.933333-8.533333 23.466667-8.533333s17.066667 2.133333 23.466667 8.533333c12.8 12.8 12.8 32 0 44.8l-204.8 198.4zM435.2 290.133333c-4.266667 8.533333-8.533333 14.933333-17.066667 17.066667-4.266667 2.133333-8.533333 2.133333-10.666666 2.133333H192c-17.066667 0-32-14.933333-32-32s14.933333-32 32-32h136.533333L128 44.8c-12.8-12.8-12.8-32 0-44.8 6.4-6.4 14.933333-8.533333 23.466667-8.533333s17.066667 2.133333 23.466666 8.533333l200.533334 200.533333V64c0-17.066667 14.933333-32 32-32s32 14.933333 32 32V277.333333c-2.133333 4.266667-2.133333 8.533333-4.266667 12.8zM603.733333 492.8c4.266667-8.533333 8.533333-14.933333 17.066667-17.066667 4.266667-2.133333 8.533333-2.133333 10.666667-2.133333h213.333333c17.066667 0 32 14.933333 32 32s-14.933333 32-32 32h-136.533333L896 725.333333c12.8 12.8 12.8 32 0 44.8-12.8 12.8-32 12.8-44.8 0l-187.733333-187.733333V718.933333c0 17.066667-14.933333 32-32 32s-32-14.933333-32-32v-213.333333c2.133333-4.266667 2.133333-8.533333 4.266666-12.8z"  horiz-adv-x="1024" />

    
    <glyph glyph-name="layers" unicode="&#59061;" d="M110.933333 544l384-192c4.266667-2.133333 10.666667-4.266667 17.066667-4.266667s10.666667 2.133333 17.066667 4.266667l384 192c12.8 6.4 19.2 19.2 19.2 32s-8.533333 25.6-19.2 32l-384 192c-10.666667 4.266667-21.333333 4.266667-32 0l-384-192c-12.8-6.4-19.2-19.2-19.2-32s6.4-25.6 17.066666-32zM512 727.466667L814.933333 576 512 424.533333 209.066667 576 512 727.466667zM878.933333 224L512 40.533333 145.066667 224c-17.066667 8.533333-38.4 2.133333-49.066667-17.066667-8.533333-17.066667-2.133333-38.4 17.066667-49.066666l384-192c4.266667-2.133333 10.666667-4.266667 17.066666-4.266667s10.666667 2.133333 17.066667 4.266667l384 192c17.066667 8.533333 25.6 29.866667 17.066667 49.066666-12.8 19.2-34.133333 25.6-53.333334 17.066667zM878.933333 416L512 232.533333 145.066667 416c-17.066667 8.533333-38.4 2.133333-49.066667-17.066667-8.533333-17.066667-2.133333-38.4 17.066667-49.066666l384-192c4.266667-2.133333 10.666667-4.266667 17.066666-4.266667s10.666667 2.133333 17.066667 4.266667l384 192c17.066667 8.533333 25.6 29.866667 17.066667 49.066666-12.8 19.2-34.133333 25.6-53.333334 17.066667z"  horiz-adv-x="1024" />

    
    <glyph glyph-name="lock" unicode="&#59062;" d="M785.066667 480h-61.866667v121.6c0 108.8-91.733333 198.4-202.666667 198.4s-202.666667-89.6-202.666666-198.4v-121.6h-78.933334c-55.466667 0-100.266667-44.8-100.266666-100.266667v-311.466666c0-55.466667 44.8-100.266667 100.266666-100.266667h546.133334c55.466667 0 100.266667 44.8 100.266666 100.266667V379.733333c0 55.466667-44.8 100.266667-100.266666 100.266667z m-403.2 121.6c0 74.666667 61.866667 134.4 138.666666 134.4s138.666667-59.733333 138.666667-134.4v-121.6h-277.333333v121.6z m439.466666-533.333333c0-19.2-17.066667-36.266667-36.266666-36.266667H238.933333c-19.2 0-36.266667 17.066667-36.266666 36.266667V379.733333c0 19.2 17.066667 36.266667 36.266666 36.266667h546.133334c19.2 0 36.266667-17.066667 36.266666-36.266667v-311.466666zM512 352c-17.066667 0-32-14.933333-32-32v-106.666667c0-17.066667 14.933333-32 32-32s32 14.933333 32 32v106.666667c0 17.066667-14.933333 32-32 32z"  horiz-adv-x="1024" />

    
    <glyph glyph-name="fullscreen-expand" unicode="&#59063;" d="M149.333333 501.333333c17.066667 0 32 14.933333 32 32v136.533334l187.733334-187.733334c6.4-6.4 14.933333-8.533333 23.466666-8.533333s17.066667 2.133333 23.466667 8.533333c12.8 12.8 12.8 32 0 44.8l-187.733333 187.733334H362.666667c17.066667 0 32 14.933333 32 32s-14.933333 32-32 32H149.333333c-4.266667 0-8.533333 0-10.666666-2.133334-8.533333-4.266667-14.933333-10.666667-19.2-17.066666-2.133333-4.266667-2.133333-8.533333-2.133334-12.8v-213.333334c0-17.066667 14.933333-32 32-32zM874.666667 266.666667c-17.066667 0-32-14.933333-32-32v-136.533334L642.133333 298.666667c-12.8 12.8-32 12.8-44.8 0s-12.8-32 0-44.8l200.533334-200.533334H661.333333c-17.066667 0-32-14.933333-32-32s14.933333-32 32-32h213.333334c4.266667 0 8.533333 0 10.666666 2.133334 8.533333 4.266667 14.933333 8.533333 17.066667 17.066666 2.133333 4.266667 2.133333 8.533333 2.133333 10.666667V234.666667c2.133333 17.066667-12.8 32-29.866666 32zM381.866667 300.8l-200.533334-200.533333V234.666667c0 17.066667-14.933333 32-32 32s-32-14.933333-32-32v-213.333334c0-4.266667 0-8.533333 2.133334-10.666666 4.266667-8.533333 8.533333-14.933333 17.066666-17.066667 4.266667-2.133333 8.533333-2.133333 10.666667-2.133333h213.333333c17.066667 0 32 14.933333 32 32s-14.933333 32-32 32h-136.533333l200.533333 200.533333c12.8 12.8 12.8 32 0 44.8s-29.866667 10.666667-42.666666 0zM904.533333 757.333333c0 2.133333 0 2.133333 0 0-4.266667 8.533333-10.666667 14.933333-17.066666 17.066667-4.266667 2.133333-8.533333 2.133333-10.666667 2.133333H661.333333c-17.066667 0-32-14.933333-32-32s14.933333-32 32-32h136.533334l-187.733334-187.733333c-12.8-12.8-12.8-32 0-44.8 6.4-6.4 14.933333-8.533333 23.466667-8.533333s17.066667 2.133333 23.466667 8.533333l187.733333 187.733333V533.333333c0-17.066667 14.933333-32 32-32s32 14.933333 32 32V746.666667c-2.133333 4.266667-2.133333 8.533333-4.266667 10.666666z"  horiz-adv-x="1024" />

    
    <glyph glyph-name="map" unicode="&#59064;" d="M512 821.333333C317.866667 821.333333 160 661.333333 160 467.2c0-264.533333 320-484.266667 334.933333-492.8 6.4-4.266667 10.666667-6.4 17.066667-6.4s12.8 2.133333 17.066667 6.4c12.8 8.533333 334.933333 228.266667 334.933333 492.8C864 661.333333 706.133333 821.333333 512 821.333333z m0-782.933333c-66.133333 49.066667-288 228.266667-288 426.666667 0 160 130.133333 290.133333 288 290.133333s288-130.133333 288-290.133333c0-196.266667-221.866667-377.6-288-426.666667zM512 586.666667c-76.8 0-138.666667-61.866667-138.666667-138.666667s61.866667-138.666667 138.666667-138.666667 138.666667 61.866667 138.666667 138.666667-61.866667 138.666667-138.666667 138.666667z m0-213.333334c-40.533333 0-74.666667 34.133333-74.666667 74.666667s34.133333 74.666667 74.666667 74.666667 74.666667-34.133333 74.666667-74.666667-34.133333-74.666667-74.666667-74.666667z"  horiz-adv-x="1024" />

    
    <glyph glyph-name="meh" unicode="&#59065;" d="M512-53.333333C270.933333-53.333333 74.666667 142.933333 74.666667 384S270.933333 821.333333 512 821.333333 949.333333 625.066667 949.333333 384 753.066667-53.333333 512-53.333333z m0 810.666666C307.2 757.333333 138.666667 588.8 138.666667 384S307.2 10.666667 512 10.666667 885.333333 179.2 885.333333 384 716.8 757.333333 512 757.333333zM362.666667 384c-23.466667 0-42.666667 19.2-42.666667 42.666667v64c0 23.466667 19.2 42.666667 42.666667 42.666666s42.666667-19.2 42.666666-42.666666v-64c0-23.466667-19.2-42.666667-42.666666-42.666667zM661.333333 384c-23.466667 0-42.666667 19.2-42.666666 42.666667v64c0 23.466667 19.2 42.666667 42.666666 42.666666s42.666667-19.2 42.666667-42.666666v-64c0-23.466667-19.2-42.666667-42.666667-42.666667zM699.733333 181.333333H324.266667c-17.066667 0-32 14.933333-32 32s14.933333 32 32 32h373.333333c17.066667 0 32-14.933333 32-32s-12.8-32-29.866667-32z"  horiz-adv-x="1024" />

    
    <glyph glyph-name="menu" unicode="&#59066;" d="M170.666667 682.666667m-64 0a64 64 0 1 1 128 0 64 64 0 1 1-128 0ZM170.666667 384m-64 0a64 64 0 1 1 128 0 64 64 0 1 1-128 0ZM170.666667 85.333333m-64 0a64 64 0 1 1 128 0 64 64 0 1 1-128 0ZM896 117.333333H362.666667c-17.066667 0-32-14.933333-32-32s14.933333-32 32-32h533.333333c17.066667 0 32 14.933333 32 32s-14.933333 32-32 32zM362.666667 650.666667h533.333333c17.066667 0 32 14.933333 32 32s-14.933333 32-32 32H362.666667c-17.066667 0-32-14.933333-32-32s14.933333-32 32-32zM896 416H362.666667c-17.066667 0-32-14.933333-32-32s14.933333-32 32-32h533.333333c17.066667 0 32 14.933333 32 32s-14.933333 32-32 32z"  horiz-adv-x="1024" />

    
    <glyph glyph-name="loading" unicode="&#59067;" d="M512 821.333333c-17.066667 0-32-14.933333-32-32v-149.333333c0-17.066667 14.933333-32 32-32s32 14.933333 32 32V789.333333c0 17.066667-14.933333 32-32 32zM693.333333 533.333333c8.533333 0 17.066667 2.133333 23.466667 8.533334l104.533333 104.533333c12.8 12.8 12.8 32 0 44.8-12.8 12.8-32 12.8-44.8 0l-104.533333-104.533333c-12.8-12.8-12.8-32 0-44.8 4.266667-6.4 12.8-8.533333 21.333333-8.533334zM917.333333 416h-149.333333c-17.066667 0-32-14.933333-32-32s14.933333-32 32-32h149.333333c17.066667 0 32 14.933333 32 32s-14.933333 32-32 32zM714.666667 226.133333c-12.8 12.8-32 12.8-44.8 0s-12.8-32 0-44.8l104.533333-104.533333c6.4-6.4 14.933333-8.533333 23.466667-8.533333s17.066667 2.133333 23.466666 8.533333c12.8 12.8 12.8 32 0 44.8l-106.666666 104.533333zM512 160c-17.066667 0-32-14.933333-32-32v-149.333333c0-17.066667 14.933333-32 32-32s32 14.933333 32 32v149.333333c0 17.066667-14.933333 32-32 32zM309.333333 226.133333l-104.533333-104.533333c-12.8-12.8-12.8-32 0-44.8 6.4-6.4 14.933333-8.533333 23.466667-8.533333s17.066667 2.133333 23.466666 8.533333l104.533334 104.533333c12.8 12.8 12.8 32 0 44.8s-36.266667 12.8-46.933334 0zM288 384c0 17.066667-14.933333 32-32 32H106.666667c-17.066667 0-32-14.933333-32-32s14.933333-32 32-32h149.333333c17.066667 0 32 14.933333 32 32zM247.466667 693.333333c-12.8 12.8-32 12.8-44.8 0-12.8-12.8-12.8-32 0-44.8l104.533333-104.533333c6.4-6.4 14.933333-8.533333 23.466667-8.533333s17.066667 2.133333 23.466666 8.533333c12.8 12.8 12.8 32 0 44.8l-106.666666 104.533333z"  horiz-adv-x="1024" />

    
    <glyph glyph-name="help" unicode="&#59068;" d="M512 821.333333C270.933333 821.333333 74.666667 625.066667 74.666667 384S270.933333-53.333333 512-53.333333 949.333333 142.933333 949.333333 384 753.066667 821.333333 512 821.333333z m0-810.666666c-204.8 0-373.333333 168.533333-373.333333 373.333333S307.2 757.333333 512 757.333333 885.333333 588.8 885.333333 384 716.8 10.666667 512 10.666667zM512 149.333333m-42.666667 0a42.666667 42.666667 0 1 1 85.333334 0 42.666667 42.666667 0 1 1-85.333334 0ZM512 650.666667c-76.8 0-138.666667-61.866667-138.666667-138.666667 0-17.066667 14.933333-32 32-32s32 14.933333 32 32c0 40.533333 34.133333 74.666667 74.666667 74.666667s74.666667-34.133333 74.666667-74.666667c0-27.733333-53.333333-76.8-91.733334-100.266667-8.533333-6.4-14.933333-17.066667-14.933333-27.733333v-106.666667c0-17.066667 14.933333-32 32-32s32 14.933333 32 32v89.6c34.133333 25.6 106.666667 83.2 106.666667 145.066667 0 76.8-61.866667 138.666667-138.666667 138.666667z"  horiz-adv-x="1024" />

    
    <glyph glyph-name="modular" unicode="&#59069;" d="M405.333333 437.333333H149.333333c-29.866667 0-53.333333 23.466667-53.333333 53.333334V746.666667c0 29.866667 23.466667 53.333333 53.333333 53.333333h256c29.866667 0 53.333333-23.466667 53.333334-53.333333v-256c0-29.866667-23.466667-53.333333-53.333334-53.333334z m-245.333333 64h234.666667v234.666667h-234.666667v-234.666667zM874.666667 437.333333H618.666667c-29.866667 0-53.333333 23.466667-53.333334 53.333334V746.666667c0 29.866667 23.466667 53.333333 53.333334 53.333333h256c29.866667 0 53.333333-23.466667 53.333333-53.333333v-256c0-29.866667-23.466667-53.333333-53.333333-53.333334z m-245.333334 64h234.666667v234.666667h-234.666667v-234.666667zM874.666667-32H618.666667c-29.866667 0-53.333333 23.466667-53.333334 53.333333V277.333333c0 29.866667 23.466667 53.333333 53.333334 53.333334h256c29.866667 0 53.333333-23.466667 53.333333-53.333334v-256c0-29.866667-23.466667-53.333333-53.333333-53.333333z m-245.333334 64h234.666667v234.666667h-234.666667v-234.666667zM405.333333-32H149.333333c-29.866667 0-53.333333 23.466667-53.333333 53.333333V277.333333c0 29.866667 23.466667 53.333333 53.333333 53.333334h256c29.866667 0 53.333333-23.466667 53.333334-53.333334v-256c0-29.866667-23.466667-53.333333-53.333334-53.333333z m-245.333333 64h234.666667v234.666667h-234.666667v-234.666667z"  horiz-adv-x="1024" />

    
    <glyph glyph-name="notification" unicode="&#59070;" d="M800 270.933333V448c0 117.333333-70.4 217.6-170.666667 262.4-4.266667 61.866667-55.466667 110.933333-117.333333 110.933333s-113.066667-49.066667-117.333333-110.933333c-100.266667-44.8-170.666667-145.066667-170.666667-262.4v-177.066667c-57.6-46.933333-85.333333-110.933333-85.333333-185.6 0-17.066667 14.933333-32 32-32h206.933333c14.933333-61.866667 70.4-106.666667 134.4-106.666666s119.466667 44.8 134.4 106.666666H853.333333c17.066667 0 32 14.933333 32 32 0 76.8-27.733333 138.666667-85.333333 185.6zM512 757.333333c19.2 0 36.266667-10.666667 44.8-25.6-14.933333 2.133333-29.866667 4.266667-44.8 4.266667-14.933333 0-29.866667-2.133333-44.8-4.266667 8.533333 14.933333 25.6 25.6 44.8 25.6z m0-746.666666c-29.866667 0-55.466667 17.066667-66.133333 42.666666h134.4c-12.8-25.6-38.4-42.666667-68.266667-42.666666z m-307.2 106.666666c6.4 46.933333 29.866667 83.2 70.4 113.066667 8.533333 6.4 12.8 14.933333 12.8 25.6v192c0 123.733333 100.266667 224 224 224S736 571.733333 736 448v-192c0-10.666667 4.266667-19.2 12.8-25.6 40.533333-29.866667 64-66.133333 70.4-113.066667H204.8z"  horiz-adv-x="1024" />

    
    <glyph glyph-name="mic" unicode="&#59071;" d="M516.266667 238.933333c78.933333 0 142.933333 64 142.933333 142.933334V678.4a142.933333 142.933333 0 0 1-285.866667 0v-296.533333c0-78.933333 64-142.933333 142.933334-142.933334z m-78.933334 439.466667c0 42.666667 36.266667 78.933333 78.933334 78.933333s78.933333-36.266667 78.933333-78.933333v-296.533333c0-42.666667-36.266667-78.933333-78.933333-78.933334s-78.933333 36.266667-78.933334 78.933334V678.4zM774.4 486.4c-17.066667 0-32-14.933333-32-32v-74.666667c0-125.866667-102.4-228.266667-228.266667-228.266666S288 256 288 381.866667v74.666666c0 17.066667-14.933333 32-32 32s-32-14.933333-32-32v-74.666666c0-149.333333 113.066667-273.066667 260.266667-290.133334v-85.333333h-117.333334c-17.066667 0-32-14.933333-32-32s14.933333-32 32-32h296.533334c17.066667 0 32 14.933333 32 32s-14.933333 32-32 32h-117.333334v85.333333c145.066667 14.933333 260.266667 140.8 260.266667 290.133334v74.666666c0 17.066667-12.8 29.866667-32 29.866667z"  horiz-adv-x="1024" />

    
    <glyph glyph-name="operation" unicode="&#59073;" d="M823.466667 384H578.133333v187.733333c0 66.133333-53.333333 119.466667-117.333333 119.466667s-117.333333-53.333333-117.333333-119.466667v-296.533333l-21.333334 21.333333c-46.933333 46.933333-121.6 46.933333-168.533333 2.133334s-44.8-121.6 2.133333-168.533334l174.933334-174.933333c6.4-6.4 14.933333-8.533333 23.466666-8.533333 8.533333 0 17.066667 2.133333 23.466667 8.533333 12.8 12.8 12.8 32 0 44.8l-174.933333 174.933333c-21.333333 21.333333-23.466667 57.6-2.133334 76.8 21.333333 21.333333 55.466667 19.2 76.8-2.133333l74.666667-74.666667c12.8-12.8 32-12.8 44.8 0 6.4 6.4 8.533333 14.933333 8.533333 23.466667V569.6c0 29.866667 23.466667 55.466667 53.333334 55.466667s53.333333-25.6 53.333333-55.466667v-219.733333c0-17.066667 14.933333-32 32-32h277.333333c6.4 0 10.666667-6.4 10.666667-12.8V-21.333333c0-17.066667 14.933333-32 32-32S896-38.4 896-21.333333V309.333333c2.133333 40.533333-32 74.666667-72.533333 74.666667zM266.666667 565.333333c17.066667 0 32 14.933333 32 32 0 87.466667 72.533333 160 160 160S618.666667 684.8 618.666667 597.333333c0-17.066667 14.933333-32 32-32S682.666667 580.266667 682.666667 597.333333c0 123.733333-100.266667 224-224 224S234.666667 721.066667 234.666667 597.333333c0-17.066667 14.933333-32 32-32z"  horiz-adv-x="1024" />

    
    <glyph glyph-name="print" unicode="&#59074;" d="M819.2 531.2h-44.8V768c0 17.066667-14.933333 32-32 32H281.6c-17.066667 0-32-14.933333-32-32v-236.8H204.8c-59.733333 0-108.8-49.066667-108.8-108.8v-192c0-59.733333 49.066667-108.8 108.8-108.8h44.8V0c0-17.066667 14.933333-32 32-32h460.8c17.066667 0 32 14.933333 32 32v121.6h44.8c59.733333 0 108.8 49.066667 108.8 108.8v192c0 59.733333-49.066667 108.8-108.8 108.8zM313.6 736h396.8v-204.8H313.6V736z m396.8-704H313.6V275.2h396.8v-243.2z m153.6 198.4c0-25.6-19.2-44.8-44.8-44.8h-44.8v121.6c0 17.066667-14.933333 32-32 32H281.6c-17.066667 0-32-14.933333-32-32v-121.6H204.8c-25.6 0-44.8 19.2-44.8 44.8v192c0 25.6 19.2 44.8 44.8 44.8h614.4c25.6 0 44.8-19.2 44.8-44.8v-192z"  horiz-adv-x="1024" />

    
    <glyph glyph-name="mobile-phone" unicode="&#59075;" d="M746.666667-53.333333H277.333333c-40.533333 0-74.666667 34.133333-74.666666 74.666666V746.666667c0 40.533333 34.133333 74.666667 74.666666 74.666666h469.333334c40.533333 0 74.666667-34.133333 74.666666-74.666666v-725.333334c0-40.533333-34.133333-74.666667-74.666666-74.666666z m-469.333334 810.666666c-6.4 0-10.666667-4.266667-10.666666-10.666666v-725.333334c0-6.4 4.266667-10.666667 10.666666-10.666666h469.333334c6.4 0 10.666667 4.266667 10.666666 10.666666V746.666667c0 6.4-4.266667 10.666667-10.666666 10.666666H277.333333zM512 128m-42.666667 0a42.666667 42.666667 0 1 1 85.333334 0 42.666667 42.666667 0 1 1-85.333334 0ZM597.333333 650.666667h-170.666666c-17.066667 0-32 14.933333-32 32s14.933333 32 32 32h170.666666c17.066667 0 32-14.933333 32-32s-14.933333-32-32-32z"  horiz-adv-x="1024" />

    
    <glyph glyph-name="navigation" unicode="&#59076;" d="M834.133333 682.666667c-6.4 12.8-17.066667 23.466667-29.866666 27.733333-12.8 4.266667-27.733333 4.266667-40.533334-2.133333L106.666667 394.666667c-14.933333-6.4-25.6-21.333333-29.866667-36.266667-6.4-27.733333 12.8-57.6 40.533333-64l249.6-53.333333 53.333334-249.6c4.266667-17.066667 14.933333-29.866667 29.866666-36.266667 6.4-4.266667 14.933333-4.266667 23.466667-4.266667 19.2 0 38.4 10.666667 49.066667 29.866667l313.6 657.066667c6.4 12.8 6.4 29.866667-2.133334 44.8zM477.866667 34.133333L426.666667 273.066667c-2.133333 12.8-12.8 21.333333-23.466667 23.466666L162.133333 349.866667l601.6 288-285.866666-603.733334z"  horiz-adv-x="1024" />

    
    <glyph glyph-name="move" unicode="&#59077;" d="M921.6 403.2l-121.6 121.6c-12.8 12.8-32 12.8-44.8 0s-12.8-32 0-44.8l66.133333-66.133333h-277.333333v277.333333l66.133333-66.133333c6.4-6.4 14.933333-8.533333 23.466667-8.533334s17.066667 2.133333 23.466667 8.533334c12.8 12.8 12.8 32 0 44.8l-121.6 121.6c-12.8 12.8-32 12.8-44.8 0l-121.6-121.6c-12.8-12.8-12.8-32 0-44.8 12.8-12.8 32-12.8 44.8 0l66.133333 66.133333v-277.333333h-277.333333l66.133333 66.133333c12.8 12.8 12.8 32 0 44.8-12.8 12.8-32 12.8-44.8 0l-121.6-121.6c-12.8-12.8-12.8-32 0-44.8l121.6-121.6c6.4-6.4 14.933333-8.533333 23.466667-8.533333s17.066667 2.133333 23.466666 8.533333c12.8 12.8 12.8 32 0 44.8l-66.133333 66.133333h277.333333v-277.333333l-66.133333 66.133333c-12.8 12.8-32 12.8-44.8 0s-12.8-32 0-44.8l121.6-121.6c6.4-6.4 14.933333-8.533333 23.466667-8.533333s17.066667 2.133333 23.466666 8.533333l121.6 121.6c12.8 12.8 12.8 32 0 44.8s-32 12.8-44.8 0l-66.133333-66.133333v277.333333h277.333333l-66.133333-66.133333c-12.8-12.8-12.8-32 0-44.8 6.4-6.4 14.933333-8.533333 23.466667-8.533333s17.066667 2.133333 23.466666 8.533333l121.6 121.6c6.4 6.4 8.533333 14.933333 8.533334 23.466667s-10.666667 14.933333-17.066667 21.333333z"  horiz-adv-x="1024" />

    
    <glyph glyph-name="refresh" unicode="&#59078;" d="M934.4 689.066667c-17.066667 4.266667-34.133333-6.4-38.4-23.466667l-23.466667-87.466667C797.866667 712.533333 654.933333 800 497.066667 800 264.533333 800 74.666667 614.4 74.666667 384s189.866667-416 422.4-416c179.2 0 339.2 110.933333 398.933333 275.2 6.4 17.066667-2.133333 34.133333-19.2 40.533333-17.066667 6.4-34.133333-2.133333-40.533333-19.2-51.2-138.666667-187.733333-232.533333-339.2-232.533333C298.666667 32 138.666667 189.866667 138.666667 384S300.8 736 497.066667 736c145.066667 0 277.333333-87.466667 330.666666-217.6l-128 36.266667c-17.066667 4.266667-34.133333-6.4-38.4-23.466667-4.266667-17.066667 6.4-34.133333 23.466667-38.4l185.6-49.066667c2.133333 0 6.4-2.133333 8.533333-2.133333 6.4 0 10.666667 2.133333 17.066667 4.266667 6.4 4.266667 12.8 10.666667 14.933333 19.2l49.066667 185.6c0 17.066667-8.533333 34.133333-25.6 38.4z"  horiz-adv-x="1024" />

    
    <glyph glyph-name="run-up" unicode="&#59079;" d="M409.6 601.338776l71.053061 71.053061v-248.685715c0-16.718367 14.628571-31.346939 31.346939-31.346938s31.346939 14.628571 31.346939 31.346938v250.775511l71.053061-71.053062c6.269388-6.269388 14.628571-8.359184 22.987755-8.359183s16.718367 2.089796 22.987755 8.359183c12.538776 12.538776 12.538776 31.346939 0 43.885715l-125.387755 125.387755c-12.538776 12.538776-31.346939 12.538776-43.885714 0l-125.387755-125.387755c-12.538776-12.538776-12.538776-31.346939 0-43.885715 10.44898-12.538776 31.346939-12.538776 43.885714-2.089795zM936.228571 444.604082l-242.416326 81.50204c-16.718367 6.269388-33.436735-4.179592-39.706123-18.808163-6.269388-16.718367 4.179592-33.436735 18.808164-39.706122l156.734694-52.244898L512 302.497959 194.35102 415.346939l156.734694 52.244898c16.718367 6.269388 25.077551 22.987755 18.808164 39.706122-6.269388 16.718367-22.987755 25.077551-39.706123 18.808163L87.771429 444.604082c-12.538776-4.179592-20.897959-16.718367-20.89796-29.257143 0-12.538776 8.359184-25.077551 20.89796-29.257143l413.779591-146.285714c4.179592-2.089796 6.269388-2.089796 10.44898-2.089796s6.269388 0 10.44898 2.089796l413.779591 146.285714c12.538776 4.179592 20.897959 16.718367 20.89796 29.257143 0 14.628571-8.359184 25.077551-20.89796 29.257143zM512 181.289796c-16.718367 0-31.346939-14.628571-31.346939-31.346939v-156.734694c0-16.718367 14.628571-31.346939 31.346939-31.346939s31.346939 14.628571 31.346939 31.346939v156.734694c0 16.718367-14.628571 31.346939-31.346939 31.346939z"  horiz-adv-x="1024" />

    
    <glyph glyph-name="picture" unicode="&#59080;" d="M819.2 800H204.8c-59.733333 0-108.8-49.066667-108.8-108.8v-616.533333c0-59.733333 49.066667-108.8 108.8-108.8h616.533333c59.733333 0 108.8 49.066667 108.8 108.8V691.2c-2.133333 59.733333-51.2 108.8-110.933333 108.8zM160 76.8V691.2c0 23.466667 19.2 44.8 44.8 44.8h616.533333c23.466667 0 44.8-19.2 44.8-44.8v-388.266667l-125.866666 125.866667c-27.733333 27.733333-76.8 27.733333-104.533334 0l-390.4-384c-4.266667-4.266667-6.4-8.533333-6.4-12.8H204.8c-25.6 0-44.8 19.2-44.8 44.8z m659.2-44.8H324.266667l354.133333 354.133333c2.133333 2.133333 6.4 2.133333 8.533333 2.133334s4.266667 0 8.533334-2.133334l160-160c4.266667-4.266667 8.533333-6.4 12.8-6.4v-142.933333c-4.266667-25.6-23.466667-44.8-49.066667-44.8zM375.466667 413.866667c59.733333 0 106.666667 46.933333 106.666666 106.666666s-46.933333 106.666667-106.666666 106.666667-106.666667-46.933333-106.666667-106.666667 49.066667-106.666667 106.666667-106.666666z m0 149.333333c23.466667 0 42.666667-19.2 42.666666-42.666667s-19.2-42.666667-42.666666-42.666666-42.666667 19.2-42.666667 42.666666 19.2 42.666667 42.666667 42.666667z"  horiz-adv-x="1024" />

    
    <glyph glyph-name="run-in" unicode="&#59081;" d="M612.352 130.048l-69.632-69.632V179.2c0 16.384-14.336 30.72-30.72 30.72s-30.72-14.336-30.72-30.72v-120.832l-69.632 69.632c-12.288 12.288-30.72 12.288-43.008 0s-12.288-30.72 0-43.008l122.88-122.88c6.144-6.144 14.336-8.192 22.528-8.192s16.384 2.048 22.528 8.192l122.88 122.88c12.288 12.288 12.288 30.72 0 43.008s-34.816 12.288-47.104 2.048zM927.744 474.112l-237.568 79.872c-16.384 6.144-32.768-4.096-38.912-18.432-6.144-16.384 4.096-32.768 18.432-38.912l153.6-51.2L512 334.848 200.704 445.44l153.6 51.2c16.384 6.144 24.576 22.528 18.432 38.912-6.144 16.384-22.528 24.576-38.912 18.432L96.256 474.112c-12.288-4.096-20.48-16.384-20.48-28.672 0-12.288 8.192-24.576 20.48-28.672l405.504-143.36c4.096-2.048 6.144-2.048 10.24-2.048s6.144 0 10.24 2.048l405.504 143.36c12.288 4.096 20.48 16.384 20.48 28.672 0 14.336-8.192 24.576-20.48 28.672zM512 394.24c16.384 0 30.72 14.336 30.72 30.72V742.4c0 16.384-14.336 30.72-30.72 30.72s-30.72-14.336-30.72-30.72V424.96c0-16.384 14.336-30.72 30.72-30.72z"  horiz-adv-x="1024" />

    
    <glyph glyph-name="pin" unicode="&#59082;" d="M911.15102 572.081633L689.632653 793.6c-18.808163 18.808163-50.155102 20.897959-71.053061 2.089796l-267.493878-229.877551-96.130612-14.628572c-6.269388 0-12.538776-4.179592-16.718367-8.359183l-58.514286-58.514286c-20.897959-20.897959-20.897959-54.334694 0-73.142857l152.555102-152.555102L125.387755 51.722449c-12.538776-12.538776-12.538776-31.346939 0-43.885714 6.269388-6.269388 14.628571-10.44898 20.897959-10.44898s16.718367 2.089796 22.987755 8.359184l204.8 204.8 152.555102-152.555102c10.44898-10.44898 22.987755-14.628571 37.616327-14.628572s27.167347 6.269388 37.616326 14.628572l58.514286 58.514285c4.179592 4.179592 8.359184 10.44898 8.359184 16.718368l14.628571 96.130612 227.787755 267.493878c18.808163 25.077551 18.808163 56.42449 0 75.232653zM631.118367 266.971429c-4.179592-4.179592-6.269388-10.44898-6.269387-14.628572l-14.628572-94.040816-45.97551-45.97551-334.367347 334.367347 43.885714 43.885714 94.040817 14.628571c6.269388 0 10.44898 4.179592 14.628571 6.269388l269.583674 229.877551 206.889795-206.889796-227.787755-267.493877z"  horiz-adv-x="1024" />

    
    <glyph glyph-name="save" unicode="&#59083;" d="M906.666667 597.333333L725.333333 778.666667c-14.933333 14.933333-32 21.333333-53.333333 21.333333H170.666667C130.133333 800 96 765.866667 96 725.333333v-682.666666c0-40.533333 34.133333-74.666667 74.666667-74.666667h682.666666c40.533333 0 74.666667 34.133333 74.666667 74.666667V546.133333c0 19.2-8.533333 38.4-21.333333 51.2zM652.8 32H371.2V247.466667h281.6v-215.466667z m211.2 10.666667c0-6.4-4.266667-10.666667-10.666667-10.666667h-140.8V277.333333c0 17.066667-12.8 29.866667-29.866666 29.866667H341.333333c-17.066667 0-29.866667-12.8-29.866666-29.866667v-245.333333H170.666667c-6.4 0-10.666667 4.266667-10.666667 10.666667V725.333333c0 6.4 4.266667 10.666667 10.666667 10.666667h140.8V576c0-17.066667 12.8-29.866667 29.866666-29.866667h277.333334c17.066667 0 29.866667 12.8 29.866666 29.866667s-12.8 29.866667-29.866666 29.866667H371.2V736h302.933333c2.133333 0 6.4-2.133333 8.533334-2.133333l179.2-179.2c2.133333-2.133333 2.133333-4.266667 2.133333-8.533334V42.666667z"  horiz-adv-x="1024" />

    
    <glyph glyph-name="search" unicode="&#59084;" d="M945.066667-2.133333l-189.866667 189.866666c55.466667 64 87.466667 149.333333 87.466667 241.066667 0 204.8-168.533333 373.333333-373.333334 373.333333S96 631.466667 96 426.666667 264.533333 53.333333 469.333333 53.333333c91.733333 0 174.933333 34.133333 241.066667 87.466667l189.866667-189.866667c6.4-6.4 14.933333-8.533333 23.466666-8.533333s17.066667 2.133333 23.466667 8.533333c8.533333 12.8 8.533333 34.133333-2.133333 46.933334zM469.333333 117.333333C298.666667 117.333333 160 256 160 426.666667S298.666667 736 469.333333 736 778.666667 597.333333 778.666667 426.666667 640 117.333333 469.333333 117.333333z"  horiz-adv-x="1024" />

    
    <glyph glyph-name="share" unicode="&#59085;" d="M874.666667 352c-17.066667 0-32-14.933333-32-32v-256c0-6.4-4.266667-10.666667-10.666667-10.666667H192c-6.4 0-10.666667 4.266667-10.666667 10.666667V704c0 6.4 4.266667 10.666667 10.666667 10.666667h256c17.066667 0 32 14.933333 32 32s-14.933333 32-32 32H192C151.466667 778.666667 117.333333 744.533333 117.333333 704v-640c0-40.533333 34.133333-74.666667 74.666667-74.666667h640c40.533333 0 74.666667 34.133333 74.666667 74.666667V320c0 17.066667-14.933333 32-32 32zM874.666667 778.666667H640c-17.066667 0-32-14.933333-32-32s14.933333-32 32-32h157.866667L509.866667 428.8c-12.8-12.8-12.8-32 0-44.8 6.4-6.4 14.933333-8.533333 23.466666-8.533333s17.066667 2.133333 23.466667 8.533333l285.866667 285.866667V512c0-17.066667 14.933333-32 32-32s32 14.933333 32 32V746.666667c0 17.066667-14.933333 32-32 32z"  horiz-adv-x="1024" />

    
    <glyph glyph-name="scanning" unicode="&#59086;" d="M341.333333 32H170.666667c-6.4 0-10.666667 4.266667-10.666667 10.666667v170.666666c0 17.066667-14.933333 32-32 32s-32-14.933333-32-32v-170.666666c0-40.533333 34.133333-74.666667 74.666667-74.666667h170.666666c17.066667 0 32 14.933333 32 32s-14.933333 32-32 32zM896 245.333333c-17.066667 0-32-14.933333-32-32v-170.666666c0-6.4-4.266667-10.666667-10.666667-10.666667h-170.666666c-17.066667 0-32-14.933333-32-32s14.933333-32 32-32h170.666666c40.533333 0 74.666667 34.133333 74.666667 74.666667v170.666666c0 17.066667-14.933333 32-32 32zM128 522.666667c17.066667 0 32 14.933333 32 32V725.333333c0 6.4 4.266667 10.666667 10.666667 10.666667h170.666666c17.066667 0 32 14.933333 32 32s-14.933333 32-32 32H170.666667C130.133333 800 96 765.866667 96 725.333333v-170.666666c0-17.066667 14.933333-32 32-32zM853.333333 800h-170.666666c-17.066667 0-32-14.933333-32-32s14.933333-32 32-32h170.666666c6.4 0 10.666667-4.266667 10.666667-10.666667v-170.666666c0-17.066667 14.933333-32 32-32s32 14.933333 32 32V725.333333c0 40.533333-34.133333 74.666667-74.666667 74.666667zM896 426.666667H128c-17.066667 0-32-14.933333-32-32S110.933333 362.666667 128 362.666667h768c17.066667 0 32 14.933333 32 32S913.066667 426.666667 896 426.666667z"  horiz-adv-x="1024" />

    
    <glyph glyph-name="security" unicode="&#59087;" d="M814.933333 716.8L529.066667 817.066667c-10.666667 4.266667-23.466667 4.266667-34.133334 0L209.066667 716.8c-29.866667-10.666667-49.066667-38.4-49.066667-70.4V298.666667c0-194.133333 157.866667-352 352-352S864 104.533333 864 298.666667V646.4c0 32-19.2 61.866667-49.066667 70.4zM800 298.666667c0-157.866667-130.133333-288-288-288S224 140.8 224 298.666667V646.4c0 4.266667 2.133333 8.533333 6.4 10.666667L512 755.2l281.6-98.133333c4.266667-2.133333 6.4-6.4 6.4-10.666667V298.666667zM659.2 492.8l-192-194.133333-85.333333 68.266666c-12.8 10.666667-34.133333 8.533333-44.8-4.266666-10.666667-12.8-8.533333-34.133333 4.266666-44.8l106.666667-85.333334c6.4-4.266667 12.8-6.4 19.2-6.4 8.533333 0 17.066667 2.133333 23.466667 8.533334l213.333333 213.333333c12.8 12.8 12.8 32 0 44.8-10.666667 10.666667-32 10.666667-44.8 0z"  horiz-adv-x="1024" />

    
    <glyph glyph-name="select" unicode="&#59088;" d="M409.6 138.666667c-8.533333 0-17.066667 2.133333-23.466667 8.533333l-238.933333 234.666667c-12.8 12.8-12.8 32 0 44.8 12.8 12.8 32 12.8 44.8 0l215.466667-213.333334 422.4 428.8c12.8 12.8 32 12.8 44.8 0 12.8-12.8 12.8-32 0-44.8L430.933333 149.333333c-4.266667-8.533333-12.8-10.666667-21.333333-10.666666z"  horiz-adv-x="1024" />

    
    <glyph glyph-name="stop" unicode="&#59089;" d="M512 821.333333C270.933333 821.333333 74.666667 625.066667 74.666667 384S270.933333-53.333333 512-53.333333 949.333333 142.933333 949.333333 384 753.066667 821.333333 512 821.333333zM885.333333 384c0-85.333333-29.866667-164.266667-78.933333-228.266667l-533.333333 514.133334c64 55.466667 149.333333 87.466667 238.933333 87.466666 204.8 0 373.333333-168.533333 373.333333-373.333333z m-746.666666 0c0 91.733333 34.133333 174.933333 87.466666 241.066667l535.466667-516.266667c-66.133333-59.733333-153.6-98.133333-251.733333-98.133333-202.666667 0-371.2 168.533333-371.2 373.333333z"  horiz-adv-x="1024" />

    
    <glyph glyph-name="smile" unicode="&#59090;" d="M512 821.333333C270.933333 821.333333 74.666667 625.066667 74.666667 384S270.933333-53.333333 512-53.333333 949.333333 142.933333 949.333333 384 753.066667 821.333333 512 821.333333z m0-810.666666c-204.8 0-373.333333 168.533333-373.333333 373.333333S307.2 757.333333 512 757.333333 885.333333 588.8 885.333333 384 716.8 10.666667 512 10.666667zM674.133333 288c-46.933333-57.6-100.266667-85.333333-162.133333-85.333333s-115.2 27.733333-162.133333 85.333333c-10.666667 12.8-32 14.933333-44.8 4.266667-12.8-10.666667-14.933333-32-4.266667-44.8 59.733333-70.4 130.133333-106.666667 211.2-106.666667s151.466667 36.266667 211.2 106.666667c10.666667 12.8 8.533333 34.133333-4.266667 44.8-12.8 10.666667-34.133333 8.533333-44.8-4.266667zM362.666667 384c23.466667 0 42.666667 19.2 42.666666 42.666667v64c0 23.466667-19.2 42.666667-42.666666 42.666666s-42.666667-19.2-42.666667-42.666666v-64c0-23.466667 19.2-42.666667 42.666667-42.666667zM661.333333 384c23.466667 0 42.666667 19.2 42.666667 42.666667v64c0 23.466667-19.2 42.666667-42.666667 42.666666s-42.666667-19.2-42.666666-42.666666v-64c0-23.466667 19.2-42.666667 42.666666-42.666667z"  horiz-adv-x="1024" />

    
    <glyph glyph-name="switch" unicode="&#59091;" d="M128 373.333333c17.066667 0 32 14.933333 32 32v170.666667c0 6.4 4.266667 10.666667 10.666667 10.666667h652.8l-83.2-83.2c-12.8-12.8-12.8-34.133333 0-46.933334 6.4-6.4 14.933333-10.666667 23.466666-10.666666s17.066667 4.266667 23.466667 10.666666l145.066667 145.066667c12.8 12.8 12.8 34.133333 0 46.933333l-145.066667 145.066667c-12.8 12.8-34.133333 12.8-46.933333 0-12.8-12.8-12.8-34.133333 0-46.933333l93.866666-93.866667H170.666667c-40.533333 0-74.666667-34.133333-74.666667-74.666667v-170.666666c0-19.2 14.933333-34.133333 32-34.133334zM906.666667 394.666667c-17.066667 0-32-14.933333-32-32v-170.666667c0-6.4-4.266667-10.666667-10.666667-10.666667H211.2l83.2 83.2c12.8 12.8 12.8 34.133333 0 46.933334-12.8 12.8-34.133333 12.8-46.933333 0l-145.066667-145.066667c-12.8-12.8-12.8-34.133333 0-46.933333l145.066667-145.066667c6.4-6.4 14.933333-10.666667 23.466666-10.666667s17.066667 4.266667 23.466667 10.666667c12.8 12.8 12.8 34.133333 0 46.933333l-93.866667 93.866667h663.466667c40.533333 0 74.666667 34.133333 74.666667 74.666667v170.666666c0 19.2-12.8 34.133333-32 34.133334z"  horiz-adv-x="1024" />

    
    <glyph glyph-name="setting" unicode="&#59092;" d="M904.533333 473.6l-85.333333 14.933333-17.066667 38.4 49.066667 70.4c14.933333 21.333333 12.8 49.066667-6.4 68.266667l-53.333333 53.333333c-19.2 19.2-46.933333 21.333333-68.266667 6.4l-70.4-49.066666-38.4 17.066666-14.933333 85.333334c-2.133333 23.466667-23.466667 42.666667-49.066667 42.666666h-74.666667c-25.6 0-46.933333-19.2-53.333333-44.8l-14.933333-85.333333-38.4-17.066667L296.533333 725.333333c-21.333333 14.933333-49.066667 12.8-68.266666-6.4l-53.333334-53.333333c-19.2-19.2-21.333333-46.933333-6.4-68.266667l49.066667-70.4-17.066667-38.4-85.333333-14.933333c-21.333333-4.266667-40.533333-25.6-40.533333-51.2v-74.666667c0-25.6 19.2-46.933333 44.8-53.333333l85.333333-14.933333 17.066667-38.4L170.666667 168.533333c-14.933333-21.333333-12.8-49.066667 6.4-68.266666l53.333333-53.333334c19.2-19.2 46.933333-21.333333 68.266667-6.4l70.4 49.066667 38.4-17.066667 14.933333-85.333333c4.266667-25.6 25.6-44.8 53.333333-44.8h74.666667c25.6 0 46.933333 19.2 53.333333 44.8l14.933334 85.333333 38.4 17.066667 70.4-49.066667c21.333333-14.933333 49.066667-12.8 68.266666 6.4l53.333334 53.333334c19.2 19.2 21.333333 46.933333 6.4 68.266666l-49.066667 70.4 17.066667 38.4 85.333333 14.933334c25.6 4.266667 44.8 25.6 44.8 53.333333v74.666667c-4.266667 27.733333-23.466667 49.066667-49.066667 53.333333z m-19.2-117.333333l-93.866666-17.066667c-10.666667-2.133333-19.2-8.533333-23.466667-19.2l-29.866667-70.4c-4.266667-10.666667-2.133333-21.333333 4.266667-29.866667l53.333333-76.8-40.533333-40.533333-76.8 53.333333c-8.533333 6.4-21.333333 8.533333-29.866667 4.266667L576 128c-10.666667-4.266667-17.066667-12.8-19.2-23.466667l-17.066667-93.866666h-57.6l-17.066666 93.866666c-2.133333 10.666667-8.533333 19.2-19.2 23.466667l-70.4 29.866667c-10.666667 4.266667-21.333333 2.133333-29.866667-4.266667l-76.8-53.333333-40.533333 40.533333 53.333333 76.8c6.4 8.533333 8.533333 21.333333 4.266667 29.866667L256 320c-4.266667 10.666667-12.8 17.066667-23.466667 19.2l-93.866666 17.066667v57.6l93.866666 17.066666c10.666667 2.133333 19.2 8.533333 23.466667 19.2l29.866667 70.4c4.266667 10.666667 2.133333 21.333333-4.266667 29.866667l-53.333333 76.8 40.533333 40.533333 76.8-53.333333c8.533333-6.4 21.333333-8.533333 29.866667-4.266667L448 640c10.666667 4.266667 17.066667 12.8 19.2 23.466667l17.066667 93.866666h57.6l17.066666-93.866666c2.133333-10.666667 8.533333-19.2 19.2-23.466667l70.4-29.866667c10.666667-4.266667 21.333333-2.133333 29.866667 4.266667l76.8 53.333333 40.533333-40.533333-53.333333-76.8c-6.4-8.533333-8.533333-21.333333-4.266667-29.866667L768 448c4.266667-10.666667 12.8-17.066667 23.466667-19.2l93.866666-17.066667v-55.466666zM512 501.333333c-64 0-117.333333-53.333333-117.333333-117.333333s53.333333-117.333333 117.333333-117.333333 117.333333 53.333333 117.333333 117.333333-53.333333 117.333333-117.333333 117.333333z m0-170.666666c-29.866667 0-53.333333 23.466667-53.333333 53.333333s23.466667 53.333333 53.333333 53.333333 53.333333-23.466667 53.333333-53.333333-23.466667-53.333333-53.333333-53.333333z"  horiz-adv-x="1024" />

    
    <glyph glyph-name="survey" unicode="&#59093;" d="M810.666667 757.333333h-85.333334V768c0 29.866667-23.466667 53.333333-53.333333 53.333333h-320C322.133333 821.333333 298.666667 797.866667 298.666667 768v-10.666667h-85.333334c-40.533333 0-74.666667-34.133333-74.666666-74.666666v-661.333334c0-40.533333 34.133333-74.666667 74.666666-74.666666h597.333334c40.533333 0 74.666667 34.133333 74.666666 74.666666V682.666667c0 40.533333-34.133333 74.666667-74.666666 74.666666z m-149.333334 0v-64H362.666667v64h298.666666zM821.333333 21.333333c0-6.4-4.266667-10.666667-10.666666-10.666666H213.333333c-6.4 0-10.666667 4.266667-10.666666 10.666666V682.666667c0 6.4 4.266667 10.666667 10.666666 10.666666h85.333334v-10.666666c0-29.866667 23.466667-53.333333 53.333333-53.333334h320c29.866667 0 53.333333 23.466667 53.333333 53.333334v10.666666h85.333334c6.4 0 10.666667-4.266667 10.666666-10.666666v-661.333334zM659.2 450.133333l-211.2-213.333333-83.2 83.2c-12.8 12.8-32 12.8-44.8 0s-12.8-32 0-44.8l106.666667-106.666667c6.4-6.4 14.933333-8.533333 23.466666-8.533333s17.066667 2.133333 23.466667 8.533333l234.666667 234.666667c12.8 12.8 12.8 32 0 44.8-14.933333 12.8-36.266667 12.8-49.066667 2.133333z"  horiz-adv-x="1024" />

    
    <glyph glyph-name="task" unicode="&#59094;" d="M846.933333 780.8c-8.533333 6.4-21.333333 6.4-29.866666 2.133333 0 0-74.666667-34.133333-174.933334-34.133333-49.066667 0-96 17.066667-145.066666 34.133333-53.333333 19.2-106.666667 38.4-166.4 38.4-119.466667 0-162.133333-40.533333-168.533334-44.8-4.266667-6.4-8.533333-14.933333-8.533333-23.466666V-21.333333c0-17.066667 14.933333-32 32-32s32 14.933333 32 32V300.8c14.933333 8.533333 51.2 21.333333 113.066667 21.333333 49.066667 0 96-17.066667 145.066666-34.133333 53.333333-19.2 106.666667-38.4 166.4-38.4 115.2 0 198.4 38.4 200.533334 38.4 10.666667 4.266667 19.2 17.066667 19.2 29.866667V753.066667c0 10.666667-6.4 21.333333-14.933334 27.733333z m-49.066666-441.6c-27.733333-10.666667-85.333333-25.6-155.733334-25.6-49.066667 0-96 17.066667-145.066666 34.133333-53.333333 19.2-106.666667 38.4-166.4 38.4-49.066667 0-87.466667-6.4-113.066667-17.066666V736c14.933333 8.533333 51.2 21.333333 113.066667 21.333333 49.066667 0 96-17.066667 145.066666-34.133333 53.333333-19.2 106.666667-38.4 166.4-38.4 64 0 119.466667 12.8 155.733334 23.466667v-369.066667z"  horiz-adv-x="1024" />

    
    <glyph glyph-name="skip" unicode="&#59095;" d="M921.6 539.733333c-14.933333 8.533333-34.133333 4.266667-42.666667-12.8L829.866667 448c-51.2 157.866667-200.533333 266.666667-369.066667 266.666667-172.8 0-324.266667-115.2-373.333333-277.333334-4.266667-17.066667 4.266667-34.133333 21.333333-40.533333 17.066667-4.266667 34.133333 4.266667 40.533333 21.333333 40.533333 136.533333 166.4 232.533333 311.466667 232.533334 140.8 0 264.533333-89.6 307.2-219.733334l-81.066667 46.933334c-14.933333 8.533333-34.133333 4.266667-42.666666-10.666667-8.533333-14.933333-4.266667-34.133333 10.666666-42.666667l147.2-85.333333c4.266667-2.133333 10.666667-4.266667 17.066667-4.266667 2.133333 0 6.4 0 8.533333 2.133334 8.533333 2.133333 14.933333 8.533333 19.2 14.933333l85.333334 147.2c8.533333 12.8 4.266667 32-10.666667 40.533333zM896 138.666667H128c-17.066667 0-32-14.933333-32-32s14.933333-32 32-32h768c17.066667 0 32 14.933333 32 32s-14.933333 32-32 32z"  horiz-adv-x="1024" />

    
    <glyph glyph-name="text" unicode="&#59096;" d="M853.333333 757.333333H170.666667c-17.066667 0-32-14.933333-32-32v-128c0-17.066667 14.933333-32 32-32s32 14.933333 32 32V693.333333h277.333333v-618.666666H384c-17.066667 0-32-14.933333-32-32s14.933333-32 32-32h256c17.066667 0 32 14.933333 32 32s-14.933333 32-32 32h-96v618.666666h277.333333V597.333333c0-17.066667 14.933333-32 32-32s32 14.933333 32 32V725.333333c0 17.066667-14.933333 32-32 32z"  horiz-adv-x="1024" />

    
    <glyph glyph-name="time" unicode="&#59097;" d="M512 821.333333C270.933333 821.333333 74.666667 625.066667 74.666667 384S270.933333-53.333333 512-53.333333 949.333333 142.933333 949.333333 384 753.066667 821.333333 512 821.333333z m0-810.666666c-204.8 0-373.333333 168.533333-373.333333 373.333333S307.2 757.333333 512 757.333333 885.333333 588.8 885.333333 384 716.8 10.666667 512 10.666667zM695.466667 328.533333l-151.466667 70.4V618.666667c0 17.066667-14.933333 32-32 32s-32-14.933333-32-32v-238.933334c0-12.8 6.4-23.466667 19.2-29.866666l170.666667-81.066667c4.266667-2.133333 8.533333-2.133333 12.8-2.133333 12.8 0 23.466667 6.4 29.866666 19.2 6.4 14.933333 0 34.133333-17.066666 42.666666z"  horiz-adv-x="1024" />

    
    <glyph glyph-name="toggle-left" unicode="&#59098;" d="M874.666667 96H149.333333c-17.066667 0-32-14.933333-32-32s14.933333-32 32-32h725.333334c17.066667 0 32 14.933333 32 32s-14.933333 32-32 32zM149.333333 672h725.333334c17.066667 0 32 14.933333 32 32s-14.933333 32-32 32H149.333333c-17.066667 0-32-14.933333-32-32s14.933333-32 32-32zM341.333333 416c-17.066667 0-32-14.933333-32-32s14.933333-32 32-32h512c17.066667 0 32 14.933333 32 32s-14.933333 32-32 32H341.333333zM275.2 211.2c6.4-6.4 14.933333-8.533333 23.466667-8.533333s17.066667 2.133333 23.466666 8.533333c12.8 12.8 12.8 32 0 44.8l-128 128 125.866667 125.866667c12.8 12.8 12.8 32 0 44.8-12.8 12.8-32 12.8-44.8 0l-149.333333-149.333334c-12.8-12.8-12.8-32 0-44.8l149.333333-149.333333z"  horiz-adv-x="1024" />

    
    <glyph glyph-name="toggle-right" unicode="&#59099;" d="M874.666667 96H149.333333c-17.066667 0-32-14.933333-32-32s14.933333-32 32-32h725.333334c17.066667 0 32 14.933333 32 32s-14.933333 32-32 32zM149.333333 672h725.333334c17.066667 0 32 14.933333 32 32s-14.933333 32-32 32H149.333333c-17.066667 0-32-14.933333-32-32s14.933333-32 32-32zM149.333333 352h512c17.066667 0 32 14.933333 32 32s-14.933333 32-32 32H149.333333c-17.066667 0-32-14.933333-32-32s14.933333-32 32-32zM748.8 556.8c-12.8 12.8-32 12.8-44.8 0-12.8-12.8-12.8-32 0-44.8l125.866667-125.866667-125.866667-125.866666c-12.8-12.8-12.8-32 0-44.8 6.4-6.4 14.933333-8.533333 23.466667-8.533334s17.066667 2.133333 23.466666 8.533334l149.333334 149.333333c12.8 12.8 12.8 32 0 44.8l-151.466667 147.2z"  horiz-adv-x="1024" />

    
    <glyph glyph-name="top" unicode="&#59100;" d="M896 800H128c-17.066667 0-32-14.933333-32-32S110.933333 736 128 736h768c17.066667 0 32 14.933333 32 32s-14.933333 32-32 32zM535.466667 599.466667c-12.8 12.8-32 12.8-44.8 0l-213.333334-213.333334c-12.8-12.8-12.8-32 0-44.8s32-12.8 44.8 0l157.866667 157.866667V42.666667c0-17.066667 14.933333-32 32-32s32 14.933333 32 32V499.2l157.866667-157.866667c6.4-6.4 14.933333-8.533333 23.466666-8.533333s17.066667 2.133333 23.466667 8.533333c12.8 12.8 12.8 32 0 44.8l-213.333333 213.333334z"  horiz-adv-x="1024" />

    
    </font>
</defs>
</svg>
